<?xml version="1.0" standalone="no"?><!DOCTYPE svg PUBLIC "-//W3C//DTD SVG 1.1//EN" "http://www.w3.org/Graphics/SVG/1.1/DTD/svg11.dtd" ><svg xmlns="http://www.w3.org/2000/svg"><metadata></metadata><defs><font id="2.007;tyPL;Lato-Regular;1944;TR4-4.0.1.5099" horiz-adv-x="2751"><font-face font-family="Lato" font-weight="400" font-stretch="normal" units-per-em="2000" panose-1="2 15 5 2 2 2 4 3 2 3" ascent="1974" descent="-426" x-height="3" bbox="-1093 -537 2685 2157" underline-thickness="194" underline-position="-103" unicode-range="U+0000-feff" /><missing-glyph horiz-adv-x="1063" d="M250 1141 q25 22 53.5 41 q28.5 19 62.5 33.5 q34 14.5 73.5 23 q39.5 8.5 85.5 8.5 q63 0 114.5 -17.5 q51.5 -17.5 88 -49.5 q36.5 -32 57 -77.5 q20.5 -45.5 20.5 -101.5 q0 -55 -15 -95 q-15 -40 -37.5 -69.5 q-22.5 -29.5 -49.5 -51 q-27 -21.5 -51 -40.5 q-24 -19 -41.5 -37.5 q-17.5 -18.5 -21.5 -41.5 l-17 -105 l-122 0 l-12 117 q-4 34 9 59.5 q13 25.5 35.5 47 q22.5 21.5 50 41.5 q27.5 20 51.5 43 q24 23 40 52 q16 29 16 69 q0 51 -36.5 81 q-36.5 30 -93.5 30 q-41 0 -69 -9 q-28 -9 -48 -20 q-20 -11 -34 -20 q-14 -9 -25 -9 q-25 0 -37 22 l-47 76 ZM396 292 q0 47 31 79 q31 32 79 32 q22 0 42 -8.5 q20 -8.5 34.5 -23.5 q14.5 -15 23 -35.5 q8.5 -20.5 8.5 -43.5 q0 -23 -8.5 -43 q-8.5 -20 -23 -35 q-14.5 -15 -34.5 -23.5 q-20 -8.5 -42 -8.5 q-48 0 -79 31.5 q-31 31.5 -31 78.5 ZM45 1433 l974 0 l0 -1433 l-974 0 l0 1433 ZM95 54 l867 0 l0 1324 l-867 0 l0 -1324 Z" /><glyph glyph-name="" unicode="" d="" /><glyph glyph-name="" unicode="  " d="" /><glyph glyph-name="" unicode="a" d="M1348 0 l-150 0 q-26 0 -42 13 q-16 13 -24 33 l-134 346 l-643 0 l-134 -346 q-6 -18 -23 -32 q-17 -14 -42 -14 l-150 0 l573 1433 l196 0 l573 -1433 ZM409 532 l535 0 l-225 583 q-11 26 -21.5 60 q-10.5 34 -21.5 73 q-10 -39 -20.5 -73.5 q-10.5 -34.5 -21.5 -60.5 l-225 -582 Z" /><glyph glyph-name="" unicode="æ" d="M750 1433 l1022 0 l0 -158 l-749 0 l59 -476 l559 0 l0 -152 l-540 0 l61 -489 l611 0 l-1 -158 l-772 0 l-49 392 l-557 0 l-179 -347 q-10 -20 -29 -32.5 q-19 -12.5 -45 -12.5 l-147 0 l756 1433 ZM467 532 l466 0 l-94 755 q-13 -41 -27 -76.5 q-14 -35.5 -28 -66.5 l-317 -612 Z" /><glyph glyph-name="" unicode="b" d="M183 0 l0 1433 l457 0 q132 0 227.5 -26 q95.5 -26 157 -74 q61.5 -48 90.5 -117.5 q29 -69.5 29 -156.5 q0 -53 -16.5 -102 q-16.5 -49 -49.5 -91 q-33 -42 -83.5 -75 q-50.5 -33 -118.5 -54 q157 -31 237 -113 q80 -82 80 -216 q0 -91 -33.5 -166 q-33.5 -75 -98 -129 q-64.5 -54 -158.5 -83.5 q-94 -29.5 -214 -29.5 l-506 0 ZM376 653 l0 -499 l310 0 q83 0 143 19 q60 19 98.5 53.5 q38.5 34.5 56.5 82 q18 47.5 18 104.5 q0 111 -79 175.5 q-79 64.5 -237 64.5 l-310 0 ZM376 791 l256 0 q82 0 142.5 18 q60.5 18 100 50 q39.5 32 58.5 77.5 q19 45.5 19 99.5 q0 127 -76 185.5 q-76 58.5 -236 58.5 l-264 0 l0 -489 Z" /><glyph glyph-name="" unicode="c" d="M1189 296 q16 0 28 -13 l77 -83 q-88 -102 -213.5 -159 q-125.5 -57 -303.5 -57 q-154 0 -280 53.5 q-126 53.5 -215 150 q-89 96.5 -138 231.5 q-49 135 -49 297 q0 162 51 297 q51 135 143.5 232 q92.5 97 221.5 150.5 q129 53.5 285 53.5 q153 0 270 -49 q117 -49 206 -133 l-64 -89 q-6 -10 -15.5 -16.5 q-9.5 -6.5 -25.5 -6.5 q-18 0 -44 19.5 q-26 19.5 -68 43.5 q-42 24 -105 43.5 q-63 19.5 -155 19.5 q-111 0 -203 -38.5 q-92 -38.5 -158.5 -111.5 q-66.5 -73 -103.5 -178 q-37 -105 -37 -237 q0 -134 38.5 -239 q38.5 -105 105 -177.5 q66.5 -72.5 157 -110.5 q90.5 -38 195.5 -38 q64 0 115.5 7.5 q51.5 7.5 95 23.5 q43.5 16 81 40.5 q37.5 24.5 74.5 58.5 q17 15 34 15 Z" /><glyph glyph-name="" unicode="ç" d="M662 -253 q6 0 14 -3.5 q8 -3.5 19.5 -8 q11.5 -4.5 27 -8 q15.5 -3.5 36.5 -3.5 q42 0 63.5 17 q21.5 17 21.5 43 q0 38 -42 53.5 q-42 15.5 -119 25.5 l41 123 q-143 9 -259 66 q-116 57 -198.5 153 q-82.5 96 -127 226 q-44.5 130 -44.5 285 q0 162 51 297 q51 135 143.5 232 q92.5 97 221.5 150.5 q129 53.5 285 53.5 q153 0 270 -49 q117 -49 206 -133 l-64 -89 q-6 -10 -15.5 -16.5 q-9.5 -6.5 -25.5 -6.5 q-18 0 -44 19.5 q-26 19.5 -68 43.5 q-42 24 -105 43.5 q-63 19.5 -155 19.5 q-111 0 -203 -38.5 q-92 -38.5 -158.5 -111.5 q-66.5 -73 -103.5 -178 q-37 -105 -37 -237 q0 -134 38.5 -239 q38.5 -105 105 -177.5 q66.5 -72.5 157 -110.5 q90.5 -38 195.5 -38 q64 0 115.5 7.5 q51.5 7.5 95 23.5 q43.5 16 81 40.5 q37.5 24.5 74.5 58.5 q17 15 34 15 q16 0 28 -13 l77 -83 q-82 -95 -195.5 -150.5 q-113.5 -55.5 -271.5 -63.5 l-18 -61 q93 -19 134.5 -54 q41.5 -35 41.5 -89 q0 -32 -16 -58 q-16 -26 -44.5 -44 q-28.5 -18 -68.5 -27.5 q-40 -9.5 -88 -9.5 q-41 0 -78 8.5 q-37 8.5 -68 22.5 l17 55 q6 18 23 18 Z" /><glyph glyph-name="" unicode="d" d="M1425 716 q0 -161 -51 -293 q-51 -132 -144 -226 q-93 -94 -223.5 -145.5 q-130.5 -51.5 -288.5 -51.5 l-535 0 l0 1433 l535 0 q158 0 288.5 -51.5 q130.5 -51.5 223.5 -146 q93 -94.5 144 -226.5 q51 -132 51 -293 ZM1226 716 q0 132 -36 236 q-36 104 -102 176 q-66 72 -160 110 q-94 38 -210 38 l-341 0 l0 -1119 l341 0 q116 0 210 38 q94 38 160 109.5 q66 71.5 102 175.5 q36 104 36 236 Z" /><glyph glyph-name="" unicode="e" d="M1066 1433 l0 -158 l-689 0 l0 -476 l558 0 l0 -152 l-558 0 l0 -489 l690 0 l-1 -158 l-883 0 l0 1433 l883 0 Z" /><glyph glyph-name="" unicode="f" d="M1066 1433 l0 -158 l-689 0 l0 -501 l589 0 l0 -158 l-589 0 l0 -616 l-194 0 l0 1433 l883 0 Z" /><glyph glyph-name="" unicode="g" d="M1347 139 q-108 -78 -230.5 -116.5 q-122.5 -38.5 -268.5 -38.5 q-173 0 -312 53.5 q-139 53.5 -237.5 150 q-98.5 96.5 -151.5 231.5 q-53 135 -53 297 q0 164 51.5 299 q51.5 135 146.5 231.5 q95 96.5 231 149.5 q136 53 304 53 q85 0 158 -12.5 q73 -12.5 135 -36 q62 -23.5 115 -57 q53 -33.5 99 -75.5 l-55 -88 q-13 -20 -33.5 -25.5 q-20.5 -5.5 -45.5 9.5 q-24 14 -55 34 q-31 20 -75.5 38.5 q-44.5 18.5 -105 31.5 q-60.5 13 -143.5 13 q-121 0 -219 -39.5 q-98 -39.5 -167 -113 q-69 -73.5 -106 -178 q-37 -104.5 -37 -234.5 q0 -135 38.5 -241.5 q38.5 -106.5 110 -181 q71.5 -74.5 173.5 -113.5 q102 -39 229 -39 q50 0 93.5 6 q43.5 6 83.5 16.5 q40 10.5 77 26 q37 15.5 75 35.5 l0 316 l-223 0 q-19 0 -30.5 11 q-11.5 11 -11.5 27 l0 110 l440 0 l0 -550 l0 0 Z" /><glyph glyph-name="" unicode="h" d="M1344 0 l-194 0 l0 652 l-773 0 l0 -652 l-194 0 l0 1433 l194 0 l0 -639 l773 0 l0 639 l194 0 l0 -1433 Z" /><glyph glyph-name="" unicode="i" d="M377 0 l-194 0 l0 1433 l194 0 l0 -1433 Z" /><glyph glyph-name="" unicode="j" d="M677 495 q0 -120 -29.5 -215 q-29.5 -95 -87 -160.5 q-57.5 -65.5 -141.5 -100.5 q-84 -35 -193 -35 q-99 0 -202 28 l10 114 q2 17 12.5 27.5 q10.5 10.5 32.5 10.5 q18 0 47.5 -9 q29.5 -9 79.5 -9 q66 0 118 20 q52 20 87 62 q35 42 53.5 107.5 q18.5 65.5 18.5 155.5 l0 942 l194 0 l0 -938 Z" /><glyph glyph-name="" unicode="k" d="M376 805 l73 0 q38 0 61 9.5 q23 9.5 42 32.5 l477 540 q20 26 42 36 q22 10 54 10 l164 0 l-546 -617 q-20 -24 -38.5 -39.5 q-18.5 -15.5 -39.5 -25.5 q27 -9 49 -26.5 q22 -17.5 43 -45.5 l570 -679 l-168 0 q-19 0 -32.5 2.5 q-13.5 2.5 -23.5 8 q-10 5.5 -17.5 13 q-7.5 7.5 -14.5 17.5 l-494 569 q-20 25 -43 35.5 q-23 10.5 -70 10.5 l-88 0 l0 -656 l-193 0 l0 1433 l193 0 l0 -628 Z" /><glyph glyph-name="" unicode="l" d="M376 163 l620 0 l0 -163 l-813 0 l0 1433 l193 0 l0 -1270 Z" /><glyph glyph-name="" unicode="m" d="M888 518 q12 -24 23 -50.5 q11 -26.5 22 -52.5 q10 27 21 53.5 q11 26.5 24 50.5 l486 881 q12 23 26.5 28 q14.5 5 40.5 5 l143 0 l0 -1433 l-170 0 l0 1053 q0 21 1 45 q1 24 3 49 l-491 -896 q-23 -45 -70 -45 l-28 0 q-47 0 -70 45 l-502 899 q3 -26 4.5 -51 q1.5 -25 1.5 -46 l0 -1053 l-170 0 l0 1433 l143 0 q26 0 40 -5 q14 -5 27 -28 l495 -882 l0 0 Z" /><glyph glyph-name="" unicode="n" d="M283 1433 q13 0 22 -1.5 q9 -1.5 16 -5 q7 -3.5 14 -10 q7 -6.5 15 -16.5 l829 -1079 q-2 26 -3.5 50.5 q-1.5 24.5 -1.5 46.5 l0 1015 l170 0 l0 -1433 l-97 0 q-23 0 -38.5 8 q-15.5 8 -30.5 27 l-829 1079 q2 -25 3 -49 q1 -24 1 -44 l0 -1021 l-170 0 l0 1433 l100 0 l0 0 Z" /><glyph glyph-name="" unicode="o" d="M1507 716 q0 -161 -51 -295.5 q-51 -134.5 -144 -231.5 q-93 -97 -223.5 -150.5 q-130.5 -53.5 -288.5 -53.5 q-158 0 -288 53.5 q-130 53.5 -223 150.5 q-93 97 -144 231.5 q-51 134.5 -51 295.5 q0 161 51 295.5 q51 134.5 144 232 q93 97.5 223 151.5 q130 54 288 54 q158 0 288.5 -54 q130.5 -54 223.5 -151.5 q93 -97.5 144 -232 q51 -134.5 51 -295.5 ZM1308 716 q0 132 -36 237 q-36 105 -102 177.5 q-66 72.5 -160 111.5 q-94 39 -210 39 q-115 0 -209 -39 q-94 -39 -160.5 -111.5 q-66.5 -72.5 -102.5 -177.5 q-36 -105 -36 -237 q0 -132 36 -236.5 q36 -104.5 102.5 -177 q66.5 -72.5 160.5 -111 q94 -38.5 209 -38.5 q116 0 210 38.5 q94 38.5 160 111 q66 72.5 102 177 q36 104.5 36 236.5 Z" /><glyph glyph-name="" unicode="ø" d="M1507 716 q0 -161 -51 -295.5 q-51 -134.5 -144 -231.5 q-93 -97 -223.5 -150.5 q-130.5 -53.5 -288.5 -53.5 q-108 0 -202 24.5 q-94 24.5 -173 72.5 l-100 -136 q-21 -30 -50.5 -42.5 q-29.5 -12.5 -58.5 -12.5 l-78 0 l191 260 q-112 98 -173.5 242 q-61.5 144 -61.5 323 q0 161 51 295.5 q51 134.5 144 232 q93 97.5 223 151.5 q130 54 288 54 q115 0 215 -29 q100 -29 183 -83 l82 111 q20 27 36 38.5 q16 11.5 48 11.5 l100 0 l-172 -235 q103 -98 159 -237 q56 -139 56 -310 ZM292 716 q0 -135 37.5 -240.5 q37.5 -105.5 106.5 -178.5 l659 899 q-60 42 -134 63.5 q-74 21.5 -161 21.5 q-115 0 -209 -39 q-94 -39 -160.5 -111.5 q-66.5 -72.5 -102.5 -177.5 q-36 -105 -36 -237 ZM1308 716 q0 126 -32.5 226.5 q-32.5 100.5 -92.5 172.5 l-655 -892 q116 -70 272 -70 q116 0 210 38.5 q94 38.5 160 111 q66 72.5 102 177 q36 104.5 36 236.5 Z" /><glyph glyph-name="" unicode="&#x152;" d="M2091 1433 l0 -158 l-688 0 l0 -476 l558 0 l0 -152 l-558 0 l0 -489 l689 0 l-1 -158 l-860 0 l0 239 q-84 -120 -211 -186.5 q-127 -66.5 -288 -66.5 q-142 0 -259 53.5 q-117 53.5 -201 150 q-84 96.5 -130 231 q-46 134.5 -46 295.5 q0 161 46 295.5 q46 134.5 130 232 q84 97.5 201 151.5 q117 54 259 54 q161 0 288 -67.5 q127 -67.5 211 -188.5 l0 240 l860 0 ZM1209 716 q0 132 -32 237.5 q-32 105.5 -91.5 179.5 q-59.5 74 -144 113.5 q-84.5 39.5 -188.5 39.5 q-105 0 -189.5 -39.5 q-84.5 -39.5 -144.5 -113.5 q-60 -74 -92.5 -179.5 q-32.5 -105.5 -32.5 -237.5 q0 -132 32.5 -237.5 q32.5 -105.5 92.5 -179 q60 -73.5 144.5 -112.5 q84.5 -39 189.5 -39 q104 0 188.5 39 q84.5 39 144 112.5 q59.5 73.5 91.5 179 q32 105.5 32 237.5 Z" /><glyph glyph-name="" unicode="p" d="M376 536 l0 -536 l-193 0 l0 1433 l423 0 q136 0 236.5 -31.5 q100.5 -31.5 166.5 -89.5 q66 -58 98.5 -140 q32.5 -82 32.5 -183 q0 -100 -35 -183 q-35 -83 -102.5 -143 q-67.5 -60 -167 -93.5 q-99.5 -33.5 -229.5 -33.5 l-230 0 ZM376 690 l230 0 q83 0 146.5 22 q63.5 22 107 61.5 q43.5 39.5 65.5 94.5 q22 55 22 121 q0 137 -84.5 214 q-84.5 77 -256.5 77 l-230 0 l0 -590 Z" /><glyph glyph-name="" unicode="q" d="M1508 716 q0 -101 -20.5 -192.5 q-20.5 -91.5 -59.5 -169.5 q-39 -78 -95 -142 q-56 -64 -126 -111 l367 -397 l-160 0 q-36 0 -64 10 q-28 10 -51 35 l-251 274 q-57 -18 -118.5 -28 q-61.5 -10 -128.5 -10 q-158 0 -288 53.5 q-130 53.5 -223 150.5 q-93 97 -144 231.5 q-51 134.5 -51 295.5 q0 161 51 295.5 q51 134.5 144 232 q93 97.5 223 151.5 q130 54 288 54 q158 0 288.5 -54 q130.5 -54 223.5 -151.5 q93 -97.5 144 -232 q51 -134.5 51 -295.5 ZM1309 716 q0 132 -36 237 q-36 105 -102 177.5 q-66 72.5 -160 111.5 q-94 39 -210 39 q-115 0 -209 -39 q-94 -39 -160.5 -111.5 q-66.5 -72.5 -102.5 -177.5 q-36 -105 -36 -237 q0 -132 36 -236.5 q36 -104.5 102.5 -177 q66.5 -72.5 160.5 -111 q94 -38.5 209 -38.5 q116 0 210 38.5 q94 38.5 160 111 q66 72.5 102 177 q36 104.5 36 236.5 Z" /><glyph glyph-name="" unicode="r" d="M376 598 l0 -598 l-193 0 l0 1433 l405 0 q136 0 235 -27.5 q99 -27.5 163.5 -79.5 q64.5 -52 95.5 -125.5 q31 -73.5 31 -164.5 q0 -76 -24 -142 q-24 -66 -69.5 -118.5 q-45.5 -52.5 -111 -90 q-65.5 -37.5 -148.5 -55.5 q38 -24 64 -61 l418 -569 l-172 0 q-53 0 -78 41 l-372 512 q-17 24 -36.5 34.5 q-19.5 10.5 -60.5 10.5 l-147 0 ZM376 739 l204 0 q84 0 148.5 20.5 q64.5 20.5 108 58 q43.5 37.5 65.5 89.5 q22 52 22 115 q0 128 -84 193 q-84 65 -252 65 l-212 0 l0 -541 Z" /><glyph glyph-name="" unicode="s" d="M916 1209 q-9 -15 -19.5 -22.5 q-10.5 -7.5 -25.5 -7.5 q-17 0 -40 17 q-23 17 -57.5 37.5 q-34.5 20.5 -83 37.5 q-48.5 17 -117.5 17 q-65 0 -114.5 -17.5 q-49.5 -17.5 -83 -47.5 q-33.5 -30 -50.5 -70.5 q-17 -40.5 -17 -87.5 q0 -60 29.5 -99.5 q29.5 -39.5 78 -67.5 q48.5 -28 110 -48.5 q61.5 -20.5 126 -42.5 q64.5 -22 126 -49.5 q61.5 -27.5 110 -69.5 q48.5 -42 78 -103 q29.5 -61 29.5 -150 q0 -94 -32 -176.5 q-32 -82.5 -93.5 -143.5 q-61.5 -61 -151 -96 q-89.5 -35 -203.5 -35 q-140 0 -254 50.5 q-114 50.5 -195 136.5 l56 92 q8 11 19.5 18.5 q11.5 7.5 25.5 7.5 q13 0 29.5 -10.5 q16.5 -10.5 37.5 -26.5 q21 -16 48 -35 q27 -19 61.5 -35 q34.5 -16 78.5 -26.5 q44 -10.5 99 -10.5 q69 0 123 19 q54 19 91.5 53.5 q37.5 34.5 57.5 82.5 q20 48 20 107 q0 65 -29.5 106.5 q-29.5 41.5 -77.5 69.5 q-48 28 -110 47.5 q-62 19.5 -126 40 q-64 20.5 -126 47.5 q-62 27 -110 70 q-48 43 -77.5 107.5 q-29.5 64.5 -29.5 159.5 q0 76 29.5 147 q29.5 71 86 126 q56.5 55 139 88 q82.5 33 189.5 33 q120 0 218.5 -38 q98.5 -38 173.5 -110 l-47 -92 Z" /><glyph glyph-name="" unicode="t" d="M1152 1433 l0 -163 l-464 0 l0 -1270 l-193 0 l0 1270 l-465 0 l0 163 l1122 0 Z" /><glyph glyph-name="" unicode="u" d="M736 154 q89 0 159 30 q70 30 118.5 84 q48.5 54 74 129 q25.5 75 25.5 165 l0 871 l193 0 l0 -871 q0 -124 -39.5 -230 q-39.5 -106 -113 -183.5 q-73.5 -77.5 -179.5 -121.5 q-106 -44 -238 -44 q-132 0 -238 44 q-106 44 -180 121.5 q-74 77.5 -113.5 183.5 q-39.5 106 -39.5 230 l0 871 l193 0 l0 -870 q0 -90 25.5 -165 q25.5 -75 74 -129 q48.5 -54 119 -84.5 q70.5 -30.5 159.5 -30.5 Z" /><glyph glyph-name="" unicode="v" d="M6 1433 l155 0 q26 0 42 -13 q16 -13 24 -33 l404 -1011 q13 -34 25 -74 q12 -40 23 -83 q9 43 20.5 83 q11.5 40 24.5 74 l403 1011 q6 17 23.5 31.5 q17.5 14.5 42.5 14.5 l155 0 l-584 -1433 l-174 0 l-584 1433 Z" /><glyph glyph-name="" unicode="w" d="M31 1433 l161 0 q26 0 43.5 -13 q17.5 -13 22.5 -33 l296 -996 q7 -27 13.5 -58 q6.5 -31 12.5 -65 q7 34 14.5 65.5 q7.5 31.5 16.5 57.5 l337 996 q6 17 23.5 31.5 q17.5 14.5 42.5 14.5 l56 0 q26 0 42 -13 q16 -13 24 -33 l336 -996 q9 -26 16.5 -56 q7.5 -30 13.5 -62 q6 32 12 62 q6 30 13 56 l297 996 q5 18 22.5 32 q17.5 14 42.5 14 l151 0 l-447 -1433 l-174 0 l-363 1093 q-11 31 -20 72 q-5 -20 -9.5 -38.5 q-4.5 -18.5 -9.5 -33.5 l-365 -1093 l-174 0 l-447 1433 Z" /><glyph glyph-name="" unicode="x" d="M513 736 l-473 697 l193 0 q21 0 31 -7 q10 -7 18 -20 l374 -574 q7 21 21 46 l353 524 q8 14 19 22.5 q11 8.5 26 8.5 l185 0 l-475 -688 l491 -745 l-192 0 q-22 0 -34.5 11.5 q-12.5 11.5 -20.5 25.5 l-384 601 q-7 -21 -18 -40 l-374 -561 q-10 -14 -21.5 -25.5 q-11.5 -11.5 -31.5 -11.5 l-180 0 l493 736 Z" /><glyph glyph-name="" unicode="y" d="M721 571 l0 -571 l-194 0 l0 571 l-525 862 l170 0 q26 0 41 -12.5 q15 -12.5 26 -32.5 l328 -557 q18 -35 32.5 -65.5 q14.5 -30.5 25.5 -60.5 q11 30 25 60.5 q14 30.5 32 65.5 l327 557 q9 17 25 31 q16 14 41 14 l171 0 l-525 -862 Z" /><glyph glyph-name="" unicode="z" d="M1139 1433 l0 -72 q0 -33 -20 -64 l-812 -1139 l820 0 l0 -158 l-1074 0 l0 76 q0 16 5.5 30 q5.5 14 13.5 27 l812 1142 l-793 0 l0 158 l1048 0 Z" /><glyph glyph-name="" unicode="a" d="M785 0 q-26 0 -40 8.5 q-14 8.5 -22 33.5 l-20 95 q-40 -36 -78.5 -64.5 q-38.5 -28.5 -80 -48 q-41.5 -19.5 -89 -30 q-47.5 -10.5 -105.5 -10.5 q-59 0 -111 16.5 q-52 16.5 -90.5 49.5 q-38.5 33 -61 83.5 q-22.5 50.5 -22.5 119.5 q0 60 33 115.5 q33 55.5 107 98.5 q74 43 193 70.5 q119 27.5 292 31.5 l0 79 q0 118 -51 178.5 q-51 60.5 -149 60.5 q-66 0 -110.5 -16.5 q-44.5 -16.5 -77 -37 q-32.5 -20.5 -56 -37 q-23.5 -16.5 -46.5 -16.5 q-18 0 -31 9.5 q-13 9.5 -22 23.5 l-32 57 q84 81 181 121 q97 40 215 40 q85 0 151 -28 q66 -28 111 -78 q45 -50 68 -121 q23 -71 23 -156 l0 -648 l-79 0 ZM403 109 q47 0 86 9.5 q39 9.5 73.5 27 q34.5 17.5 66 43 q31.5 25.5 61.5 57.5 l0 210 q-123 -4 -209.5 -19.5 q-86.5 -15.5 -141 -40.5 q-54.5 -25 -79 -59 q-24.5 -34 -24.5 -76 q0 -40 13 -69 q13 -29 35.5 -47.5 q22.5 -18.5 53 -27 q30.5 -8.5 65.5 -8.5 Z" /><glyph glyph-name="" unicode="æ" d="M1142 1029 q82 0 153 -32 q71 -32 123 -93 q52 -61 82 -148.5 q30 -87.5 30 -199.5 q0 -41 -8 -55.5 q-8 -14.5 -33 -14.5 l-630 0 q4 -91 27 -158.5 q23 -67.5 61.5 -112.5 q38.5 -45 91 -67 q52.5 -22 117.5 -22 q69 0 115 14.5 q46 14.5 76.5 32.5 q30.5 18 50 32.5 q19.5 14.5 35.5 14.5 q14 0 22.5 -4.5 q8.5 -4.5 14.5 -12.5 l47 -61 q-33 -40 -76.5 -69.5 q-43.5 -29.5 -93 -48.5 q-49.5 -19 -102.5 -28.5 q-53 -9.5 -105 -9.5 q-117 0 -212.5 56.5 q-95.5 56.5 -150.5 172.5 q-27 -62 -70.5 -106 q-43.5 -44 -96.5 -72 q-53 -28 -112.5 -40.5 q-59.5 -12.5 -118.5 -12.5 q-69 0 -126 17.5 q-57 17.5 -98.5 52.5 q-41.5 35 -64 88 q-22.5 53 -22.5 125 q0 60 33 118 q33 58 106.5 104 q73.5 46 192.5 75.5 q119 29.5 292 33.5 l0 50 q0 118 -51 181 q-51 63 -149 63 q-66 0 -110.5 -17.5 q-44.5 -17.5 -77 -38.5 q-32.5 -21 -56 -38.5 q-23.5 -17.5 -46.5 -17.5 q-18 0 -31 9.5 q-13 9.5 -22 23.5 l-32 57 q84 81 174.5 121 q90.5 40 203.5 40 q120 0 193 -51 q73 -51 106 -142 q54 88 140.5 139.5 q86.5 51.5 207.5 51.5 ZM692 486 q-123 -5 -209.5 -22.5 q-86.5 -17.5 -140.5 -45.5 q-54 -28 -78.5 -64 q-24.5 -36 -24.5 -78 q0 -87 50 -127 q50 -40 131 -40 q57 0 106.5 18 q49.5 18 86.5 55 q37 37 58 92 q21 55 21 129 l0 83 ZM1136 898 q-61 0 -109 -20.5 q-48 -20.5 -82.5 -59.5 q-34.5 -39 -55.5 -95 q-21 -56 -28 -126 l511 0 q0 65 -16 120.5 q-16 55.5 -46.5 95.5 q-30.5 40 -74.5 62.5 q-44 22.5 -99 22.5 Z" /><glyph glyph-name="" unicode="b" d="M141 0 l0 1473 l179 0 l0 -607 q63 75 144 119 q81 44 186 44 q89 0 160.5 -34 q71.5 -34 121.5 -98.5 q50 -64.5 76.5 -156.5 q26.5 -92 26.5 -207 q0 -123 -30 -224 q-30 -101 -86.5 -172.5 q-56.5 -71.5 -137.5 -111 q-81 -39.5 -182 -39.5 q-100 0 -168.5 37.5 q-68.5 37.5 -119.5 106.5 l-9 -92 q-8 -38 -46 -38 l-115 0 ZM591 887 q-87 0 -152 -40 q-65 -40 -119 -113 l0 -490 q49 -66 107.5 -93 q58.5 -27 128.5 -27 q143 0 219 101 q76 101 76 301 q0 186 -67.5 273.5 q-67.5 87.5 -192.5 87.5 Z" /><glyph glyph-name="" unicode="c" d="M846 833 q-8 -11 -16 -17 q-8 -6 -22 -6 q-15 0 -33 12.5 q-18 12.5 -44.5 27.5 q-26.5 15 -65 27.5 q-38.5 12.5 -94.5 12.5 q-75 0 -132 -26.5 q-57 -26.5 -95.5 -76.5 q-38.5 -50 -58 -121 q-19.5 -71 -19.5 -159 q0 -92 21 -163.5 q21 -71.5 59.5 -120 q38.5 -48.5 93 -74 q54.5 -25.5 122.5 -25.5 q65 0 107 15.5 q42 15.5 69.5 34.5 q27.5 19 46 34.5 q18.5 15.5 36.5 15.5 q22 0 34 -17 l50 -65 q-33 -41 -75 -70 q-42 -29 -90.5 -48.5 q-48.5 -19.5 -101.5 -28.5 q-53 -9 -108 -9 q-95 0 -176.5 35 q-81.5 35 -141.5 101.5 q-60 66.5 -94 163.5 q-34 97 -34 221 q0 113 31.5 209 q31.5 96 92 165.5 q60.5 69.5 149 108.5 q88.5 39 203.5 39 q107 0 188.5 -34.5 q81.5 -34.5 144.5 -97.5 l-47 -64 Z" /><glyph glyph-name="" unicode="ç" d="M422 -253 q6 0 14 -3.5 q8 -3.5 19.5 -8 q11.5 -4.5 27 -8 q15.5 -3.5 37.5 -3.5 q42 0 63 17 q21 17 21 43 q0 38 -42 53.5 q-42 15.5 -118 25.5 l41 125 q-87 8 -160.5 46.5 q-73.5 38.5 -127 104.5 q-53.5 66 -83.5 159 q-30 93 -30 209 q0 113 31.5 209 q31.5 96 92 165.5 q60.5 69.5 149 108.5 q88.5 39 203.5 39 q107 0 188.5 -34.5 q81.5 -34.5 144.5 -97.5 l-47 -64 q-8 -11 -16 -17 q-8 -6 -22 -6 q-15 0 -33 12.5 q-18 12.5 -44.5 27.5 q-26.5 15 -65 27.5 q-38.5 12.5 -94.5 12.5 q-75 0 -132 -26.5 q-57 -26.5 -95.5 -76.5 q-38.5 -50 -58 -121 q-19.5 -71 -19.5 -159 q0 -92 21 -163.5 q21 -71.5 59.5 -120 q38.5 -48.5 93 -74 q54.5 -25.5 122.5 -25.5 q65 0 107 15.5 q42 15.5 69.5 34.5 q27.5 19 46 34.5 q18.5 15.5 36.5 15.5 q22 0 34 -17 l50 -65 q-58 -71 -140.5 -108 q-82.5 -37 -177.5 -45 l-18 -64 q93 -19 134.5 -54 q41.5 -35 41.5 -89 q0 -32 -16 -58 q-16 -26 -44.5 -44 q-28.5 -18 -68 -27.5 q-39.5 -9.5 -87.5 -9.5 q-41 0 -78.5 8.5 q-37.5 8.5 -67.5 22.5 l16 55 q6 18 23 18 Z" /><glyph glyph-name="" unicode="d" d="M873 0 q-38 0 -48 37 l-16 123 q-65 -79 -148.5 -126.5 q-83.5 -47.5 -191.5 -47.5 q-87 0 -158 33.5 q-71 33.5 -121 98.5 q-50 65 -77 162 q-27 97 -27 223 q0 112 30 208.5 q30 96.5 86 167.5 q56 71 137.5 111.5 q81.5 40.5 183.5 40.5 q93 0 159.5 -31.5 q66.5 -31.5 118.5 -88.5 l0 562 l178 0 l0 -1473 l-106 0 ZM527 130 q88 0 153.5 40 q65.5 40 120.5 113 l0 489 q-50 66 -108 93 q-58 27 -130 27 q-141 0 -217 -101 q-76 -101 -76 -288 q0 -99 17 -169.5 q17 -70.5 50 -116 q33 -45.5 81 -66.5 q48 -21 109 -21 Z" /><glyph glyph-name="" unicode="e" d="M556 1029 q91 0 168.5 -30.5 q77.5 -30.5 134 -88 q56.5 -57.5 88.5 -142 q32 -84.5 32 -192.5 q0 -42 -9 -56 q-9 -14 -34 -14 l-677 0 q2 -96 26 -167 q24 -71 66 -118.5 q42 -47.5 100 -71 q58 -23.5 130 -23.5 q67 0 115.5 15.5 q48.5 15.5 83.5 33.5 q35 18 58.5 33.5 q23.5 15.5 40.5 15.5 q22 0 34 -17 l50 -65 q-33 -40 -79 -69.5 q-46 -29.5 -98.5 -48.5 q-52.5 -19 -108.5 -28.5 q-56 -9.5 -111 -9.5 q-105 0 -193.5 35.5 q-88.5 35.5 -153 104 q-64.5 68.5 -100.5 169.5 q-36 101 -36 232 q0 106 32.5 198 q32.5 92 93.5 159.5 q61 67.5 149 106 q88 38.5 198 38.5 ZM560 898 q-129 0 -203 -74.5 q-74 -74.5 -92 -206.5 l554 0 q0 62 -17.5 113.5 q-17.5 51.5 -51 89 q-33.5 37.5 -81.5 58 q-48 20.5 -109 20.5 Z" /><glyph glyph-name="" unicode="f" d="M207 0 l0 861 l-112 13 q-21 5 -34.5 15.5 q-13.5 10.5 -13.5 30.5 l0 73 l160 0 l0 98 q0 87 24.5 154.5 q24.5 67.5 70 114 q45.5 46.5 109.5 70.5 q64 24 144 24 q68 0 125 -20 l-4 -89 q-2 -24 -26.5 -26 q-24.5 -2 -65.5 -2 q-46 0 -83.5 -12 q-37.5 -12 -64.5 -39 q-27 -27 -41.5 -71 q-14.5 -44 -14.5 -109 l0 -93 l292 0 l0 -129 l-286 0 l0 -864 l-179 0 Z" /><glyph glyph-name="" unicode="&#xfb01;" d="M209 0 l0 861 l-112 13 q-22 5 -35 15.5 q-13 10.5 -13 30.5 l0 73 l160 0 l0 56 q0 93 29 170.5 q29 77.5 87 133.5 q58 56 144.5 87 q86.5 31 200.5 31 q38 0 78 -5 q40 -5 69 -15 l-7 -93 q-1 -10 -7.5 -14 q-6.5 -4 -17.5 -5 q-11 -1 -27.5 -0.5 q-16.5 0.5 -37.5 0.5 q-178 0 -258 -73.5 q-80 -73.5 -80 -221.5 l0 -51 l612 0 l0 -993 l-179 0 l0 864 l-428 0 l0 -864 l-178 0 Z" /><glyph glyph-name="" unicode="&#xfb02;" d="M209 0 l0 861 l-112 13 q-22 5 -35 15.5 q-13 10.5 -13 30.5 l0 73 l160 0 l0 54 q0 84 25.5 159.5 q25.5 75.5 77.5 131.5 q52 56 130 89 q78 33 182 33 q77 0 148.5 -6 q71.5 -6 138.5 -7 l121 0 l0 -1447 l-177 0 l0 1322 q-54 2 -108.5 5 q-54.5 3 -95.5 3 q-130 0 -199.5 -74.5 q-69.5 -74.5 -69.5 -208.5 l0 -54 l263 0 l0 -129 l-258 0 l0 -864 l-178 0 Z" /><glyph glyph-name="" unicode="g" d="M494 1030 q66 0 123 -14.5 q57 -14.5 104 -42.5 l275 0 l0 -66 q0 -33 -42 -42 l-115 -16 q34 -65 34 -145 q0 -74 -28.5 -134.5 q-28.5 -60.5 -78.5 -103.5 q-50 -43 -120 -66 q-70 -23 -152 -23 q-72 0 -135 17 q-32 -20 -48.5 -43 q-16.5 -23 -16.5 -45 q0 -36 29.5 -54.5 q29.5 -18.5 77.5 -26.5 q48 -8 109.5 -10 q61.5 -2 126 -6.5 q64.5 -4.5 126 -15.5 q61.5 -11 109.5 -36 q48 -25 77.5 -69 q29.5 -44 29.5 -114 q0 -65 -32.5 -126 q-32.5 -61 -93.5 -108.5 q-61 -47.5 -149.5 -76 q-88.5 -28.5 -199.5 -28.5 q-111 0 -194 22 q-83 22 -138 59 q-55 37 -82.5 85.5 q-27.5 48.5 -27.5 101.5 q0 75 47 127 q47 52 128 83 q-45 20 -71 53.5 q-26 33.5 -26 90.5 q0 22 8 45.5 q8 23.5 24.5 46.5 q16.5 23 40.5 44 q24 21 56 37 q-75 42 -117 112 q-42 70 -42 162 q0 74 28.5 134.5 q28.5 60.5 79.5 103 q51 42.5 121.5 65.5 q70.5 23 154.5 23 ZM815 -55 q0 37 -21 60 q-21 23 -56.5 36 q-35.5 13 -82.5 18.5 q-47 5.5 -99.5 8.5 q-52.5 3 -106.5 6 q-54 3 -104 10 q-56 -26 -91.5 -65 q-35.5 -39 -35.5 -93 q0 -34 17.5 -63.5 q17.5 -29.5 53.5 -51 q36 -21.5 90.5 -34 q54.5 -12.5 128.5 -12.5 q72 0 129 13 q57 13 96.5 37 q39.5 24 60.5 57 q21 33 21 73 ZM494 495 q54 0 95 15 q41 15 69 42 q28 27 42 64.5 q14 37.5 14 82.5 q0 93 -56.5 148 q-56.5 55 -163.5 55 q-108 0 -164.5 -55 q-56.5 -55 -56.5 -148 q0 -45 14.5 -82.5 q14.5 -37.5 42.5 -64.5 q28 -27 69 -42 q41 -15 95 -15 Z" /><glyph glyph-name="" unicode="h" d="M141 0 l0 1473 l179 0 l0 -596 q65 69 144 110.5 q79 41.5 182 41.5 q83 0 146.5 -27.5 q63.5 -27.5 106 -78 q42.5 -50.5 64.5 -121.5 q22 -71 22 -157 l0 -645 l-179 0 l0 645 q0 115 -52.5 178.5 q-52.5 63.5 -159.5 63.5 q-80 0 -148.5 -38 q-68.5 -38 -125.5 -103 l0 -746 l-179 0 Z" /><glyph glyph-name="" unicode="i" d="M329 1013 l0 -1013 l-178 0 l0 1013 l178 0 ZM367 1331 q0 -26 -10.5 -48.5 q-10.5 -22.5 -28 -40 q-17.5 -17.5 -41 -27.5 q-23.5 -10 -49.5 -10 q-26 0 -48.5 10 q-22.5 10 -39.5 27.5 q-17 17.5 -27 40 q-10 22.5 -10 48.5 q0 26 10 49.5 q10 23.5 27 41 q17 17.5 39.5 27.5 q22.5 10 48.5 10 q26 0 49.5 -10 q23.5 -10 41 -27.5 q17.5 -17.5 28 -41 q10.5 -23.5 10.5 -49.5 Z" /><glyph glyph-name="" unicode="&#x131;" d="M330 1013 l0 -1013 l-179 0 l0 1013 l179 0 Z" /><glyph glyph-name="" unicode="j" d="M329 1013 l0 -1088 q0 -61 -16 -113.5 q-16 -52.5 -51 -91.5 q-35 -39 -89.5 -61.5 q-54.5 -22.5 -130.5 -22.5 q-32 0 -59 5 q-27 5 -54 15 l7 96 q2 9 6.5 13.5 q4.5 4.5 12.5 5.5 q8 1 20.5 0.5 q12.5 -0.5 31.5 -0.5 q78 0 111 36.5 q33 36.5 33 117.5 l0 1088 l178 0 ZM366 1331 q0 -26 -10.5 -48.5 q-10.5 -22.5 -28 -40 q-17.5 -17.5 -40.5 -27.5 q-23 -10 -49 -10 q-26 0 -48.5 10 q-22.5 10 -39.5 27.5 q-17 17.5 -27 40 q-10 22.5 -10 48.5 q0 26 10 49.5 q10 23.5 27 41 q17 17.5 39.5 27.5 q22.5 10 48.5 10 q26 0 49 -10 q23 -10 40.5 -27.5 q17.5 -17.5 28 -41 q10.5 -23.5 10.5 -49.5 Z" /><glyph glyph-name="" unicode="k" d="M320 1473 l0 -867 l46 0 q20 0 33.5 5.5 q13.5 5.5 28.5 22.5 l320 343 q14 17 29.5 26.5 q15.5 9.5 41.5 9.5 l161 0 l-373 -397 q-27 -34 -58 -53 q18 -12 32.5 -27.5 q14.5 -15.5 27.5 -35.5 l396 -500 l-159 0 q-23 0 -39.5 7.5 q-16.5 7.5 -28.5 27.5 l-333 415 q-15 21 -29.5 27.5 q-14.5 6.5 -44.5 6.5 l-51 0 l0 -484 l-179 0 l0 1473 l179 0 Z" /><glyph glyph-name="" unicode="m" d="M141 0 l0 1013 l107 0 q38 0 47 -37 l13 -104 q56 69 126 113 q70 44 162 44 q102 0 165.5 -57 q63.5 -57 91.5 -154 q22 55 56.5 95 q34.5 40 77.5 66 q43 26 91.5 38 q48.5 12 98.5 12 q80 0 142.5 -25.5 q62.5 -25.5 106 -74.5 q43.5 -49 66.5 -120.5 q23 -71.5 23 -163.5 l0 -645 l-179 0 l0 645 q0 119 -52 180.5 q-52 61.5 -150 61.5 q-44 0 -83.5 -15.5 q-39.5 -15.5 -69.5 -45.5 q-30 -30 -47.5 -75.5 q-17.5 -45.5 -17.5 -105.5 l0 -645 l-179 0 l0 645 q0 122 -49 182 q-49 60 -143 60 q-66 0 -122 -35.5 q-56 -35.5 -103 -96.5 l0 -755 l-179 0 Z" /><glyph glyph-name="" unicode="n" d="M141 0 l0 1013 l107 0 q38 0 47 -37 l14 -110 q66 73 148 118 q82 45 189 45 q83 0 146.5 -27.5 q63.5 -27.5 106 -78 q42.5 -50.5 64.5 -121.5 q22 -71 22 -157 l0 -645 l-179 0 l0 645 q0 115 -52.5 178.5 q-52.5 63.5 -159.5 63.5 q-80 0 -148.5 -38 q-68.5 -38 -125.5 -103 l0 -746 l-179 0 Z" /><glyph glyph-name="" unicode="o" d="M568 1029 q111 0 200 -37 q89 -37 152 -105 q63 -68 96.5 -164.5 q33.5 -96.5 33.5 -215.5 q0 -120 -33.5 -216 q-33.5 -96 -96.5 -164 q-63 -68 -152 -104.5 q-89 -36.5 -200 -36.5 q-112 0 -201.5 36.5 q-89.5 36.5 -152.5 104.5 q-63 68 -96.5 164 q-33.5 96 -33.5 216 q0 119 33.5 215.5 q33.5 96.5 96.5 164.5 q63 68 152.5 105 q89.5 37 201.5 37 ZM568 125 q150 0 224 100.5 q74 100.5 74 280.5 q0 181 -74 282 q-74 101 -224 101 q-76 0 -132.5 -26 q-56.5 -26 -94 -75 q-37.5 -49 -56 -120.5 q-18.5 -71.5 -18.5 -161.5 q0 -180 74.5 -280.5 q74.5 -100.5 226.5 -100.5 Z" /><glyph glyph-name="" unicode="ø" d="M922 885 q62 -69 95 -164.5 q33 -95.5 33 -213.5 q0 -120 -33.5 -216 q-33.5 -96 -96.5 -164 q-63 -68 -152 -104.5 q-89 -36.5 -200 -36.5 q-76 0 -141.5 17 q-65.5 17 -119.5 49 l-55 -74 q-20 -30 -50.5 -42 q-30.5 -12 -59.5 -12 l-67 0 l145 196 q-66 69 -101 166 q-35 97 -35 221 q0 119 33.5 215.5 q33.5 96.5 96.5 164.5 q63 68 152.5 105 q89.5 37 201.5 37 q79 0 146.5 -19 q67.5 -19 123.5 -55 l68 92 q18 28 34.5 39 q16.5 11 49.5 11 l89 0 l-157 -212 ZM257 506 q0 -160 59 -257 l436 590 q-73 56 -184 56 q-76 0 -134 -27 q-58 -27 -97.5 -77 q-39.5 -50 -59.5 -122.5 q-20 -72.5 -20 -162.5 ZM568 120 q75 0 132.5 26.5 q57.5 26.5 97 76.5 q39.5 50 59.5 121.5 q20 71.5 20 161.5 q0 151 -52 247 l-433 -585 q70 -48 176 -48 Z" /><glyph glyph-name="" unicode="&#x153;" d="M1281 1029 q82 0 152 -32 q70 -32 121.5 -93 q51.5 -61 81 -148.5 q29.5 -87.5 29.5 -199.5 q0 -41 -8 -55.5 q-8 -14.5 -33 -14.5 l-626 0 q4 -91 26.5 -158.5 q22.5 -67.5 61 -112.5 q38.5 -45 91 -67 q52.5 -22 117.5 -22 q61 0 105.5 15.5 q44.5 15.5 76.5 33.5 q32 18 54.5 33.5 q22.5 15.5 40.5 15.5 q21 0 33 -17 l51 -65 q-33 -40 -76.5 -69.5 q-43.5 -29.5 -93 -48.5 q-49.5 -19 -102.5 -28.5 q-53 -9.5 -105 -9.5 q-118 0 -214 57.5 q-96 57.5 -151 176.5 q-54 -112 -150.5 -173 q-96.5 -61 -233.5 -61 q-100 0 -182 36.5 q-82 36.5 -140.5 104.5 q-58.5 68 -90.5 164 q-32 96 -32 216 q0 119 32 215.5 q32 96.5 91.5 164.5 q59.5 68 143 105 q83.5 37 185.5 37 q131 0 226 -60.5 q95 -60.5 148 -170.5 q25 52 61 95 q36 43 82.5 73 q46.5 30 103.5 46.5 q57 16.5 124 16.5 ZM546 125 q139 0 207 100.5 q68 100.5 68 280.5 q0 90 -17 161.5 q-17 71.5 -51 120.5 q-34 49 -86 75 q-52 26 -121 26 q-71 0 -123 -26 q-52 -26 -86.5 -75 q-34.5 -49 -51.5 -120.5 q-17 -71.5 -17 -161.5 q0 -180 68.5 -280.5 q68.5 -100.5 209.5 -100.5 ZM1274 898 q-61 0 -109 -20.5 q-48 -20.5 -82.5 -59.5 q-34.5 -39 -55 -95 q-20.5 -56 -27.5 -126 l507 0 q0 65 -15.5 120.5 q-15.5 55.5 -45.5 95.5 q-30 40 -73.5 62.5 q-43.5 22.5 -98.5 22.5 Z" /><glyph glyph-name="" unicode="p" d="M141 -343 l0 1356 l107 0 q38 0 47 -37 l15 -120 q65 79 149 127 q84 48 192 48 q88 0 159 -33.5 q71 -33.5 121 -99 q50 -65.5 77 -162.5 q27 -97 27 -223 q0 -112 -30 -208.5 q-30 -96.5 -86.5 -167 q-56.5 -70.5 -138 -111 q-81.5 -40.5 -183.5 -40.5 q-93 0 -159.5 31 q-66.5 31 -117.5 88 l0 -448 l-179 0 ZM593 887 q-87 0 -152.5 -40 q-65.5 -40 -120.5 -113 l0 -490 q48 -66 106.5 -93 q58.5 -27 130.5 -27 q142 0 218 101 q76 101 76 288 q0 99 -17.5 170 q-17.5 71 -50.5 116.5 q-33 45.5 -81 66.5 q-48 21 -109 21 Z" /><glyph glyph-name="" unicode="q" d="M979 1013 l0 -1356 l-178 0 l0 493 q-64 -74 -145.5 -119 q-81.5 -45 -186.5 -45 q-87 0 -158 33.5 q-71 33.5 -121 98.5 q-50 65 -77 162 q-27 97 -27 223 q0 112 30 208.5 q30 96.5 86 167.5 q56 71 137.5 111.5 q81.5 40.5 183.5 40.5 q99 0 167.5 -35 q68.5 -35 122.5 -99 l12 79 q10 37 48 37 l106 0 ZM527 130 q88 0 153.5 40 q65.5 40 120.5 113 l0 490 q-48 64 -107 91.5 q-59 27.5 -131 27.5 q-141 0 -217 -101 q-76 -101 -76 -288 q0 -99 17 -169.5 q17 -70.5 50 -116 q33 -45.5 81 -66.5 q48 -21 109 -21 Z" /><glyph glyph-name="" unicode="r" d="M141 0 l0 1013 l102 0 q29 0 40 -11 q11 -11 15 -38 l11 -154 q48 104 118.5 162.5 q70.5 58.5 171.5 58.5 q32 0 61.5 -7 q29.5 -7 52.5 -22 l-13 -133 q-6 -25 -30 -25 q-14 0 -41 6 q-27 6 -61 6 q-48 0 -86 -14.5 q-38 -14.5 -67.5 -42 q-29.5 -27.5 -52.5 -67.5 q-23 -40 -42 -92 l0 -640 l-179 0 Z" /><glyph glyph-name="" unicode="s" d="M731 846 q-12 -22 -37 -22 q-15 0 -34 11 q-19 11 -46.5 24.5 q-27.5 13.5 -65.5 25 q-38 11.5 -90 11.5 q-45 0 -81 -11.5 q-36 -11.5 -61.5 -31.5 q-25.5 -20 -39 -46.5 q-13.5 -26.5 -13.5 -57.5 q0 -39 22.5 -65 q22.5 -26 59.5 -45 q37 -19 84 -33.5 q47 -14.5 96.5 -31 q49.5 -16.5 96.5 -36.5 q47 -20 84 -50 q37 -30 59.5 -73.5 q22.5 -43.5 22.5 -104.5 q0 -70 -25 -129.5 q-25 -59.5 -74 -103 q-49 -43.5 -120 -68.5 q-71 -25 -164 -25 q-106 0 -192 34.5 q-86 34.5 -146 88.5 l42 68 q8 13 19 20 q11 7 28 7 q18 0 38 -14 q20 -14 48.5 -31 q28.5 -17 69.5 -31 q41 -14 102 -14 q52 0 91 13.5 q39 13.5 65 36.5 q26 23 38.5 53 q12.5 30 12.5 64 q0 42 -22.5 69.5 q-22.5 27.5 -59.5 47 q-37 19.5 -84.5 34 q-47.5 14.5 -97 30.5 q-49.5 16 -97 36.5 q-47.5 20.5 -84.5 51.5 q-37 31 -59.5 76.5 q-22.5 45.5 -22.5 110.5 q0 58 24 111.5 q24 53.5 70 94 q46 40.5 113 64.5 q67 24 153 24 q100 0 179.5 -31.5 q79.5 -31.5 137.5 -86.5 l-40 -65 Z" /><glyph glyph-name="" unicode="ß" d="M628 1454 q103 0 178 -30 q75 -30 124 -76.5 q49 -46.5 72.5 -101.5 q23.5 -55 23.5 -106 q0 -60 -21.5 -103 q-21.5 -43 -53.5 -76 q-32 -33 -69.5 -58 q-37.5 -25 -69.5 -49 q-32 -24 -53.5 -49.5 q-21.5 -25.5 -21.5 -57.5 q0 -39 26.5 -65 q26.5 -26 66.5 -48.5 q40 -22.5 86.5 -46 q46.5 -23.5 86.5 -58.5 q40 -35 66.5 -86 q26.5 -51 26.5 -129 q0 -78 -28.5 -139 q-28.5 -61 -78 -103.5 q-49.5 -42.5 -117.5 -65 q-68 -22.5 -146 -22.5 q-97 0 -176.5 34.5 q-79.5 34.5 -139.5 88.5 l42 68 q8 13 19 20 q11 7 29 7 q18 0 38 -14 q20 -14 47 -31 q27 -17 64.5 -31 q37.5 -14 91.5 -14 q43 0 78 13.5 q35 13.5 60 36.5 q25 23 38 55 q13 32 13 69 q0 56 -28 91 q-28 35 -70 60.5 q-42 25.5 -91.5 46.5 q-49.5 21 -91.5 50 q-42 29 -70 70.5 q-28 41.5 -28 107.5 q0 53 22.5 92.5 q22.5 39.5 56 71 q33.5 31.5 73 58.5 q39.5 27 73 57 q33.5 30 56 65.5 q22.5 35.5 22.5 83.5 q0 32 -12.5 64.5 q-12.5 32.5 -40.5 58.5 q-28 26 -72.5 42.5 q-44.5 16.5 -108.5 16.5 q-68 0 -123 -21 q-55 -21 -95 -63 q-40 -42 -61.5 -105 q-21.5 -63 -21.5 -147 l0 -986 l-178 0 l0 992 q0 104 34.5 189 q34.5 85 98.5 146 q64 61 154 94 q90 33 200 33 Z" /><glyph glyph-name="" unicode="t" d="M452 -16 q-120 0 -184.5 67 q-64.5 67 -64.5 193 l0 620 l-122 0 q-16 0 -27 9.5 q-11 9.5 -11 29.5 l0 71 l166 21 l41 313 q3 15 13.5 24.5 q10.5 9.5 27.5 9.5 l90 0 l0 -349 l293 0 l0 -129 l-293 0 l0 -608 q0 -64 31 -95 q31 -31 80 -31 q28 0 48.5 7.5 q20.5 7.5 35.5 16.5 q15 9 25.5 16.5 q10.5 7.5 18.5 7.5 q14 0 25 -17 l52 -85 q-46 -43 -111 -67.5 q-65 -24.5 -134 -24.5 Z" /><glyph glyph-name="" unicode="u" d="M309 1013 l0 -646 q0 -115 52.5 -178 q52.5 -63 160.5 -63 q78 0 147 37 q69 37 127 103 l0 747 l178 0 l0 -1013 l-106 0 q-38 0 -48 37 l-14 109 q-66 -73 -148 -117.5 q-82 -44.5 -188 -44.5 q-83 0 -146.5 27.5 q-63.5 27.5 -106.5 77.5 q-43 50 -64.5 121 q-21.5 71 -21.5 157 l0 646 l178 0 Z" /><glyph glyph-name="" unicode="v" d="M23 1013 l145 0 q22 0 36 -11 q14 -11 19 -26 l257 -652 q12 -37 21 -72 q9 -35 17 -70 q8 35 17 70 q9 35 22 72 l260 652 q6 16 20 26.5 q14 10.5 33 10.5 l139 0 l-413 -1013 l-160 0 l-413 1013 Z" /><glyph glyph-name="" unicode="w" d="M33 1013 l140 0 q21 0 35.5 -11 q14.5 -11 19.5 -26 l194 -652 q8 -35 15 -68.5 q7 -33.5 12 -66.5 q8 33 18 66.5 q10 33.5 21 68.5 l214 656 q5 15 17.5 25 q12.5 10 30.5 10 l78 0 q20 0 33 -10 q13 -10 18 -25 l209 -656 q10 -35 19 -69 q9 -34 17 -67 q6 33 13.5 66.5 q7.5 33.5 16.5 69.5 l198 652 q5 16 19 26.5 q14 10.5 33 10.5 l134 0 l-328 -1013 l-141 0 q-26 0 -36 34 l-224 687 q-8 23 -13 46.5 q-5 23.5 -10 46.5 q-5 -23 -10.5 -47 q-5.5 -24 -12.5 -47 l-228 -686 q-9 -34 -40 -34 l-134 0 l-328 1013 Z" /><glyph glyph-name="" unicode="x" d="M378 519 l-341 494 l171 0 q22 0 32 -7 q10 -7 18 -20 l248 -380 q9 28 26 56 l218 320 q9 14 19.5 22.5 q10.5 8.5 25.5 8.5 l164 0 l-341 -484 l355 -529 l-171 0 q-22 0 -34.5 11.5 q-12.5 11.5 -20.5 25.5 l-255 397 q-7 -29 -21 -52 l-236 -345 q-10 -14 -21.5 -25.5 q-11.5 -11.5 -31.5 -11.5 l-159 0 l355 519 Z" /><glyph glyph-name="" unicode="y" d="M450 -299 q-9 -20 -22.5 -32 q-13.5 -12 -41.5 -12 l-132 0 l185 402 l-418 954 l154 0 q23 0 36.5 -11.5 q13.5 -11.5 18.5 -25.5 l271 -638 q8 -23 15 -44.5 q7 -21.5 12 -44.5 q13 45 30 90 l263 637 q6 16 20.5 26.5 q14.5 10.5 32.5 10.5 l141 0 l-565 -1312 Z" /><glyph glyph-name="" unicode="z" d="M840 937 q0 -19 -6.5 -37 q-6.5 -18 -17.5 -31 l-549 -730 l554 0 l0 -139 l-763 0 l0 74 q0 13 6 30.5 q6 17.5 18 33.5 l552 735 l-545 0 l0 140 l751 0 l0 -76 Z" /><glyph glyph-name="" unicode="ª" d="M544 840 q-18 0 -27 5.5 q-9 5.5 -17 23.5 l-13 48 q-24 -21 -47 -37 q-23 -16 -47.5 -27 q-24.5 -11 -53 -16.5 q-28.5 -5.5 -62.5 -5.5 q-38 0 -70 10 q-32 10 -56 30.5 q-24 20.5 -37.5 50.5 q-13.5 30 -13.5 71 q0 34 19 67.5 q19 33.5 63 60 q44 26.5 116 44 q72 17.5 179 19.5 l0 37 l127 0 l0 -381 l-60 0 ZM477 1221 q0 63 -28.5 93 q-28.5 30 -85.5 30 q-38 0 -63.5 -9 q-25.5 -9 -44 -19.5 q-18.5 -10.5 -33 -19 q-14.5 -8.5 -30.5 -8.5 q-14 0 -23 8 q-9 8 -15 17 l-22 42 q51 49 112 72 q61 23 134 23 q54 0 96 -17 q42 -17 71 -47 q29 -30 44 -72 q15 -42 15 -93 l-127 0 ZM317 923 q51 0 88 18.5 q37 18.5 72 53.5 l0 106 q-70 -2 -118.5 -10.5 q-48.5 -8.5 -78.5 -22 q-30 -13.5 -43 -31 q-13 -17.5 -13 -38.5 q0 -42 26.5 -59 q26.5 -17 66.5 -17 Z" /><glyph glyph-name="" unicode="º" d="M404 1449 q70 0 126.5 -21.5 q56.5 -21.5 96.5 -61.5 q40 -40 62 -97.5 q22 -57.5 22 -128.5 q0 -72 -22 -130 q-22 -58 -62 -98.5 q-40 -40.5 -96.5 -62 q-56.5 -21.5 -126.5 -21.5 q-71 0 -128 21.5 q-57 21.5 -97.5 62 q-40.5 40.5 -62.5 98.5 q-22 58 -22 130 q0 71 22 128.5 q22 57.5 62.5 97.5 q40.5 40 97.5 61.5 q57 21.5 128 21.5 ZM404 934 q84 0 125.5 52.5 q41.5 52.5 41.5 152.5 q0 100 -41.5 152 q-41.5 52 -125.5 52 q-88 0 -129 -52 q-41 -52 -41 -152 q0 -100 41 -152.5 q41 -52.5 129 -52.5 Z" /><glyph glyph-name="" unicode="`" d="M300 1449 q33 0 49 -10.5 q16 -10.5 30 -33.5 l149 -242 l-102 0 q-21 0 -34 6.5 q-13 6.5 -27 21.5 l-234 258 l169 0 Z" /><glyph glyph-name="" unicode="´" d="M691 1449 l-233 -258 q-14 -15 -27.5 -21.5 q-13.5 -6.5 -34.5 -6.5 l-106 0 l148 242 q14 23 30.5 33.5 q16.5 10.5 48.5 10.5 l174 0 Z" /><glyph glyph-name="" unicode="&#x2c6;" d="M706 1169 l-119 0 q-11 0 -22.5 4 q-11.5 4 -22.5 15 l-123 132 q-5 4 -8.5 9 q-3.5 5 -8.5 10 q-8 -11 -16 -19 l-124 -132 q-21 -19 -45 -19 l-123 0 l223 264 l166 0 l223 -264 Z" /><glyph glyph-name="" unicode="&#x2c7;" d="M94 1433 l123 0 q12 0 23 -5 q11 -5 17 -10 l128 -136 l17 -20 q5 5 8.5 10 q3.5 5 8.5 10 l128 136 q7 5 18 10 q11 5 22 5 l119 0 l-223 -264 l-166 0 l-223 264 Z" /><glyph glyph-name="" unicode="&#x2dc;" d="M510 1325 q36 0 55.5 21 q19.5 21 20.5 65 l108 0 q0 -47 -12.5 -86.5 q-12.5 -39.5 -36 -67.5 q-23.5 -28 -56 -43.5 q-32.5 -15.5 -72.5 -15.5 q-35 0 -65.5 14.5 q-30.5 14.5 -57.5 31.5 q-27 17 -51 31.5 q-24 14.5 -47 14.5 q-72 0 -74 -88 l-111 0 q0 48 13 87.5 q13 39.5 37 68 q24 28.5 57 44 q33 15.5 72 15.5 q35 0 65.5 -14.5 q30.5 -14.5 57.5 -31.5 q27 -17 50.5 -31.5 q23.5 -14.5 46.5 -14.5 Z" /><glyph glyph-name="" unicode="¨" d="M322 1289 q0 -23 -9 -43 q-9 -20 -25 -35 q-16 -15 -36.5 -24 q-20.5 -9 -43.5 -9 q-22 0 -42 9 q-20 9 -35.5 24 q-15.5 15 -24.5 35 q-9 20 -9 43 q0 23 9 44 q9 21 24.5 36.5 q15.5 15.5 35.5 24.5 q20 9 42 9 q23 0 43.5 -9 q20.5 -9 36.5 -24.5 q16 -15.5 25 -36.5 q9 -21 9 -44 ZM703 1289 q0 -23 -9 -43 q-9 -20 -24.5 -35 q-15.5 -15 -36 -24 q-20.5 -9 -43.5 -9 q-23 0 -43.5 9 q-20.5 9 -35.5 24 q-15 15 -24 35 q-9 20 -9 43 q0 23 9 44 q9 21 24 36.5 q15 15.5 35.5 24.5 q20.5 9 43.5 9 q23 0 43.5 -9 q20.5 -9 36 -24.5 q15.5 -15.5 24.5 -36.5 q9 -21 9 -44 Z" /><glyph glyph-name="" unicode="¯&#x2c9;" d="M113 1348 l574 0 l0 -117 l-574 0 l0 117 Z" /><glyph glyph-name="" unicode="&#x2d8;" d="M400 1164 q-77 0 -129 21.5 q-52 21.5 -84.5 58 q-32.5 36.5 -46.5 85.5 q-14 49 -14 104 l126 0 q0 -33 7 -61.5 q7 -28.5 24 -48.5 q17 -20 45.5 -31.5 q28.5 -11.5 71.5 -11.5 q43 0 71.5 11.5 q28.5 11.5 45.5 31.5 q17 20 24 48.5 q7 28.5 7 61.5 l126 0 q0 -55 -14 -104 q-14 -49 -46.5 -85.5 q-32.5 -36.5 -85 -58 q-52.5 -21.5 -128.5 -21.5 Z" /><glyph glyph-name="" unicode="&#x2da;" d="M200 1315 q0 42 16 76 q16 34 43.5 59 q27.5 25 63.5 38.5 q36 13.5 76 13.5 q41 0 77.5 -13.5 q36.5 -13.5 64.5 -38.5 q28 -25 44 -59 q16 -34 16 -76 q0 -41 -16 -75 q-16 -34 -44 -58 q-28 -24 -64.5 -37.5 q-36.5 -13.5 -77.5 -13.5 q-40 0 -76 13.5 q-36 13.5 -63.5 37.5 q-27.5 24 -43.5 58 q-16 34 -16 75 ZM300 1315 q0 -44 27 -72 q27 -28 74 -28 q45 0 72.5 28 q27.5 28 27.5 72 q0 45 -27.5 73 q-27.5 28 -72.5 28 q-47 0 -74 -28 q-27 -28 -27 -73 Z" /><glyph glyph-name="" unicode="&#x2dd;" d="M522 1449 l-199 -258 q-12 -16 -26.5 -22 q-14.5 -6 -35.5 -6 l-74 0 l138 242 q12 23 29 33.5 q17 10.5 50 10.5 l118 0 ZM836 1449 l-243 -258 q-14 -15 -27.5 -21.5 q-13.5 -6.5 -33.5 -6.5 l-86 0 l180 242 q16 22 31 33 q15 11 48 11 l131 0 Z" /><glyph glyph-name="" unicode="&#x2d9;" d="M527 1338 q0 -26 -10.5 -48.5 q-10.5 -22.5 -28 -39.5 q-17.5 -17 -40.5 -27 q-23 -10 -49 -10 q-26 0 -48.5 10 q-22.5 10 -39.5 27 q-17 17 -27 39.5 q-10 22.5 -10 48.5 q0 26 10 49.5 q10 23.5 27 41 q17 17.5 39.5 27.5 q22.5 10 48.5 10 q26 0 49 -10 q23 -10 40.5 -27.5 q17.5 -17.5 28 -41 q10.5 -23.5 10.5 -49.5 Z" /><glyph glyph-name="" unicode="¸" d="M282 -253 q6 0 14 -3.5 q8 -3.5 19.5 -8 q11.5 -4.5 27 -8 q15.5 -3.5 36.5 -3.5 q42 0 63.5 17 q21.5 17 21.5 43 q0 38 -42 53.5 q-42 15.5 -119 25.5 l54 162 l101 0 l-29 -100 q93 -19 134.5 -54 q41.5 -35 41.5 -89 q0 -32 -16 -58 q-16 -26 -44.5 -44 q-28.5 -18 -68.5 -27.5 q-40 -9.5 -88 -9.5 q-41 0 -78 8.5 q-37 8.5 -68 22.5 l17 55 q6 18 23 18 Z" /><glyph glyph-name="" unicode="&#x2db;" d="M544 -211 q7 0 11.5 -4 q4.5 -4 6.5 -9 l28 -66 q-30 -23 -76.5 -37.5 q-46.5 -14.5 -97.5 -14.5 q-88 0 -138.5 39.5 q-50.5 39.5 -50.5 105.5 q0 31 12.5 60.5 q12.5 29.5 34 56.5 q21.5 27 51 50.5 q29.5 23.5 63.5 42.5 l92 -13 q-20 -11 -41 -26.5 q-21 -15.5 -38 -35 q-17 -19.5 -28 -43 q-11 -23.5 -11 -49.5 q0 -38 24.5 -59.5 q24.5 -21.5 66.5 -21.5 q23 0 38 3.5 q15 3.5 25 8 q10 4.5 16.5 8.5 q6.5 4 11.5 4 Z" /><glyph glyph-name="" unicode="&#x3c0;" d="M1167 1003 l0 -84 q0 -24 -14.5 -40.5 q-14.5 -16.5 -43.5 -16.5 l-147 0 q-1 -57 -2 -106 q-1 -49 -1 -99 q0 -119 4 -204.5 q4 -85.5 11.5 -144.5 q7.5 -59 19.5 -95 q12 -36 28 -55 q16 -19 36 -25.5 q20 -6.5 45 -6.5 l38 0 l0 -72 q0 -29 -33.5 -44.5 q-33.5 -15.5 -84.5 -15.5 q-59 0 -103.5 20 q-44.5 20 -73.5 62 q-29 42 -43.5 108.5 q-14.5 66.5 -14.5 159.5 q0 45 3.5 97.5 q3.5 52.5 9 115.5 q5.5 63 10.5 138.5 q5 75.5 8 166.5 l-371 0 q-3 -172 -14.5 -304 q-11.5 -132 -30.5 -228.5 q-19 -96.5 -44.5 -161.5 q-25.5 -65 -56.5 -104 q-31 -39 -66.5 -55.5 q-35.5 -16.5 -74.5 -16.5 q-12 0 -25 2 q-13 2 -24.5 6.5 q-11.5 4.5 -18.5 11.5 q-7 7 -7 16 l0 121 l20 0 q30 0 61 38 q31 38 57 123 q26 85 45 221 q19 136 24 331 l-219 0 l0 75 q0 11 4.5 22.5 q4.5 11.5 13.5 21.5 q9 10 21.5 16 q12.5 6 29.5 6 l1024 0 Z" /><glyph glyph-name="" unicode="!" d="M355 1433 l0 -572 q0 -45 -2 -88 q-2 -43 -5 -86.5 q-3 -43.5 -7.5 -89 q-4.5 -45.5 -10.5 -97.5 l-120 0 q-6 52 -10.5 97.5 q-4.5 45.5 -7.5 89 q-3 43.5 -5 86.5 q-2 43 -2 88 l0 572 l170 0 ZM142 110 q0 26 9.5 49 q9.5 23 26.5 40 q17 17 39.5 27 q22.5 10 49.5 10 q26 0 48.5 -10 q22.5 -10 39.5 -27 q17 -17 27 -40 q10 -23 10 -49 q0 -27 -10 -49.5 q-10 -22.5 -27 -39.5 q-17 -17 -39.5 -26.5 q-22.5 -9.5 -48.5 -9.5 q-27 0 -49.5 9.5 q-22.5 9.5 -39.5 26.5 q-17 17 -26.5 39.5 q-9.5 22.5 -9.5 49.5 Z" /><glyph glyph-name="" unicode="?" d="M81 1305 q31 29 68.5 55 q37.5 26 82 46 q44.5 20 96 31.5 q51.5 11.5 111.5 11.5 q79 0 146.5 -23 q67.5 -23 116.5 -65 q49 -42 77 -102 q28 -60 28 -135 q0 -76 -22.5 -131 q-22.5 -55 -57 -96.5 q-34.5 -41.5 -75 -72 q-40.5 -30.5 -76.5 -57.5 q-36 -27 -61.5 -54 q-25.5 -27 -29.5 -60 l-18 -153 l-122 0 l-12 166 q-4 45 17 78.5 q21 33.5 55 63 q34 29.5 75 58 q41 28.5 76.5 63.5 q35.5 35 59.5 79.5 q24 44.5 24 106.5 q0 43 -17 78 q-17 35 -46 59.5 q-29 24.5 -68.5 37.5 q-39.5 13 -84.5 13 q-61 0 -104.5 -15 q-43.5 -15 -73.5 -33 q-30 -18 -48.5 -33 q-18.5 -15 -30.5 -15 q-25 0 -39 23 l-47 75 ZM276 110 q0 26 9.5 49 q9.5 23 26 40 q16.5 17 39.5 27 q23 10 49 10 q26 0 49 -10 q23 -10 40 -27 q17 -17 27 -40 q10 -23 10 -49 q0 -27 -10 -49.5 q-10 -22.5 -27 -39.5 q-17 -17 -40 -26.5 q-23 -9.5 -49 -9.5 q-26 0 -49 9.5 q-23 9.5 -39.5 26.5 q-16.5 17 -26 39.5 q-9.5 22.5 -9.5 49.5 Z" /><glyph glyph-name="" unicode="," d="M107 123 q0 47 32.5 80 q32.5 33 86.5 33 q30 0 53 -11 q23 -11 38.5 -30.5 q15.5 -19.5 23.5 -45 q8 -25.5 8 -55.5 q0 -45 -12.5 -93.5 q-12.5 -48.5 -37 -96 q-24.5 -47.5 -59.5 -92.5 q-35 -45 -80 -83 l-30 29 q-8 7 -11 13 q-3 6 -3 15 q0 7 4.5 14 q4.5 7 10.5 13 q10 11 25.5 29.5 q15.5 18.5 31.5 42.5 q16 24 29.5 53 q13.5 29 19.5 62 l-13 0 q-52 0 -84.5 34.5 q-32.5 34.5 -32.5 88.5 Z" /><glyph glyph-name="" unicode="." d="M111 110 q0 26 9.5 49 q9.5 23 26 40 q16.5 17 39.5 27 q23 10 49 10 q26 0 49 -10 q23 -10 40 -27 q17 -17 27 -40 q10 -23 10 -49 q0 -27 -10 -49.5 q-10 -22.5 -27 -39.5 q-17 -17 -40 -26.5 q-23 -9.5 -49 -9.5 q-26 0 -49 9.5 q-23 9.5 -39.5 26.5 q-16.5 17 -26 39.5 q-9.5 22.5 -9.5 49.5 Z" /><glyph glyph-name="" unicode="&#x2018;" d="M170 950 q-42 71 -57 149.5 q-15 78.5 -3 155.5 q12 77 50 147.5 q38 70.5 101 126.5 l54 -34 q15 -10 13.5 -24.5 q-1.5 -14.5 -9.5 -22.5 q-26 -32 -44.5 -78 q-18.5 -46 -23.5 -98.5 q-5 -52.5 5 -108.5 q10 -56 41 -108 q13 -21 7.5 -37.5 q-5.5 -16.5 -24.5 -24.5 l-110 -43 Z" /><glyph glyph-name="" unicode="&#x2019;" d="M264 1529 q42 -71 57 -150 q15 -79 3 -156 q-12 -77 -50 -148 q-38 -71 -101 -126 l-54 35 q-15 9 -13.5 23.5 q1.5 14.5 9.5 23.5 q26 32 44.5 77.5 q18.5 45.5 24 98 q5.5 52.5 -5 108.5 q-10.5 56 -41.5 108 q-13 21 -7.5 37.5 q5.5 16.5 24.5 24.5 l110 44 Z" /><glyph glyph-name="" unicode="&#x201a;" d="M252 262 q42 -71 57 -150 q15 -79 3 -156 q-12 -77 -50 -148 q-38 -71 -101 -126 l-54 35 q-15 9 -13.5 23.5 q1.5 14.5 9.5 23.5 q26 32 44.5 77.5 q18.5 45.5 24 98 q5.5 52.5 -5 108.5 q-10.5 56 -41.5 108 q-13 21 -7.5 37.5 q5.5 16.5 24.5 24.5 l110 44 Z" /><glyph glyph-name="" unicode="&#x2039;" d="M100 518 l0 23 l249 389 l58 -28 q23 -11 27.5 -31.5 q4.5 -20.5 -9.5 -43.5 l-158 -261 q-14 -24 -28 -37 q15 -14 28 -36 l158 -261 q14 -23 9.5 -43.5 q-4.5 -20.5 -27.5 -31.5 l-58 -28 l-249 389 Z" /><glyph glyph-name="" unicode="&#x203a;" d="M463 541 l0 -23 l-249 -389 l-58 28 q-23 11 -27.5 31.5 q-4.5 20.5 9.5 43.5 l158 261 q7 12 14 21 q7 9 14 15 q-14 13 -28 37 l-158 261 q-14 23 -9.5 43.5 q4.5 20.5 27.5 31.5 l58 28 l249 -389 Z" /><glyph glyph-name="" unicode="/" d="M239 -21 q-13 -35 -40.5 -52 q-27.5 -17 -56.5 -17 l-75 0 l601 1497 q12 32 36.5 49 q24.5 17 56.5 17 l76 0 l-598 -1494 Z" /><glyph glyph-name="" unicode="|" d="M181 1533 l139 0 l0 -1882 l-139 0 l0 1882 Z" /><glyph glyph-name="" unicode="\" d="M67 1473 l76 0 q32 0 56.5 -17 q24.5 -17 36.5 -49 l601 -1497 l-75 0 q-29 0 -57 17 q-28 17 -40 52 l-598 1494 Z" /><glyph glyph-name="" unicode="-­&#x2010;" d="M125 675 l494 0 l0 -151 l-494 0 l0 151 Z" /><glyph glyph-name="" unicode="&#x2013;" d="M180 655 l800 0 l0 -130 l-800 0 l0 130 Z" /><glyph glyph-name="" unicode="&#x2014;" d="M128 655 l1330 0 l0 -130 l-1330 0 l0 130 Z" /><glyph glyph-name="" unicode="_" d="M853 -165 l0 -120 l-788 0 l0 120 l788 0 Z" /><glyph glyph-name="" unicode="&#x2022;" d="M209 595 q0 77 29.5 145 q29.5 68 79.5 118.5 q50 50.5 117.5 80 q67.5 29.5 143.5 29.5 q77 0 144.5 -29.5 q67.5 -29.5 118 -80 q50.5 -50.5 80 -118.5 q29.5 -68 29.5 -145 q0 -77 -29.5 -144.5 q-29.5 -67.5 -80 -117.5 q-50.5 -50 -118 -79.5 q-67.5 -29.5 -144.5 -29.5 q-76 0 -143.5 29.5 q-67.5 29.5 -117.5 79.5 q-50 50 -79.5 117.5 q-29.5 67.5 -29.5 144.5 Z" /><glyph glyph-name="" unicode="·&#x2219;" d="M111 593 q0 31 11.5 59 q11.5 28 32 48 q20.5 20 47 32 q26.5 12 56.5 12 q31 0 59 -12 q28 -12 48 -32 q20 -20 32 -48 q12 -28 12 -59 q0 -30 -12 -57 q-12 -27 -32 -47.5 q-20 -20.5 -48 -32 q-28 -11.5 -59 -11.5 q-30 0 -56.5 11.5 q-26.5 11.5 -47 32 q-20.5 20.5 -32 47.5 q-11.5 27 -11.5 57 Z" /><glyph glyph-name="" unicode="(" d="M245 629 q0 -214 54.5 -416 q54.5 -202 159.5 -384 q16 -31 8 -47.5 q-8 -16.5 -23 -26.5 l-79 -48 q-75 115 -127.5 228 q-52.5 113 -85 227 q-32.5 114 -47.5 229.5 q-15 115.5 -15 237.5 q0 121 15 237 q15 116 47.5 229.5 q32.5 113.5 85 226.5 q52.5 113 127.5 229 l79 -49 q15 -10 23 -26.5 q8 -16.5 -8 -46.5 q-105 -182 -159.5 -384 q-54.5 -202 -54.5 -416 Z" /><glyph glyph-name="" unicode=")" d="M289 629 q0 214 -54.5 416 q-54.5 202 -159.5 384 q-8 15 -10 26.5 q-2 11.5 1 20 q3 8.5 9.5 15 q6.5 6.5 14.5 11.5 l79 49 q75 -116 127.5 -229 q52.5 -113 85 -226.5 q32.5 -113.5 47.5 -229.5 q15 -116 15 -237 q0 -122 -15 -237.5 q-15 -115.5 -47.5 -229.5 q-32.5 -114 -85 -227 q-52.5 -113 -127.5 -228 l-79 48 q-8 5 -14.5 11.5 q-6.5 6.5 -9.5 15 q-3 8.5 -1 20.5 q2 12 10 27 q105 182 159.5 384 q54.5 202 54.5 416 Z" /><glyph glyph-name="" unicode="[" d="M182 -289 l0 1822 l368 0 l0 -70 q0 -20 -13.5 -33.5 q-13.5 -13.5 -35.5 -13.5 l-169 0 l0 -1587 l169 0 q22 0 35.5 -14 q13.5 -14 13.5 -34 l0 -70 l-368 0 Z" /><glyph glyph-name="" unicode="]" d="M62 -219 q0 20 13.5 34 q13.5 14 35.5 14 l169 0 l0 1587 l-169 0 q-22 0 -35.5 13.5 q-13.5 13.5 -13.5 33.5 l0 70 l368 0 l0 -1822 l-368 0 l0 70 Z" /><glyph glyph-name="" unicode="{" d="M204 425 q0 63 -35 103.5 q-35 40.5 -101 40.5 l0 107 q66 0 101 40 q35 40 35 104 q0 50 -8 99 q-8 49 -17 98 q-9 49 -17 99 q-8 50 -8 102 q0 69 20.5 127 q20.5 58 62 100 q41.5 42 103 65 q61.5 23 142.5 23 l54 0 l0 -79 q0 -20 -14 -29 q-14 -9 -26 -9 l-20 0 q-78 0 -122 -50.5 q-44 -50.5 -44 -136.5 q0 -56 7 -108 q7 -52 16 -101.5 q9 -49.5 16 -98.5 q7 -49 7 -99 q0 -38 -11 -70.5 q-11 -32.5 -31.5 -58 q-20.5 -25.5 -48 -44 q-27.5 -18.5 -60.5 -27.5 q33 -9 60.5 -27.5 q27.5 -18.5 48 -44.5 q20.5 -26 31.5 -58 q11 -32 11 -69 q0 -50 -7 -99 q-7 -49 -16 -98.5 q-9 -49.5 -16 -101.5 q-7 -52 -7 -108 q0 -87 44 -137 q44 -50 122 -50 l20 0 q12 0 26 -9 q14 -9 14 -29 l0 -80 l-54 0 q-81 0 -142.5 23.5 q-61.5 23.5 -103 65.5 q-41.5 42 -62 100 q-20.5 58 -20.5 127 q0 52 8 101.5 q8 49.5 17 99 q9 49.5 17 98.5 q8 49 8 99 Z" /><glyph glyph-name="" unicode="}" d="M398 425 q0 -50 8 -99 q8 -49 17 -98.5 q9 -49.5 17 -99 q8 -49.5 8 -101.5 q0 -69 -20.5 -127 q-20.5 -58 -62 -100 q-41.5 -42 -103 -65.5 q-61.5 -23.5 -142.5 -23.5 l-54 0 l0 80 q0 20 14.5 29 q14.5 9 25.5 9 l20 0 q78 0 122 50 q44 50 44 137 q0 56 -7 108 q-7 52 -16 101.5 q-9 49.5 -16 98.5 q-7 49 -7 99 q0 37 11 69 q11 32 31.5 58 q20.5 26 48 44.5 q27.5 18.5 60.5 27.5 q-33 9 -60.5 27.5 q-27.5 18.5 -48 44 q-20.5 25.5 -31.5 58 q-11 32.5 -11 70.5 q0 50 7 99 q7 49 16 98.5 q9 49.5 16 101.5 q7 52 7 108 q0 86 -44 136.5 q-44 50.5 -122 50.5 l-20 0 q-11 0 -25.5 9 q-14.5 9 -14.5 29 l0 79 l54 0 q81 0 142.5 -23 q61.5 -23 103 -65 q41.5 -42 62 -100 q20.5 -58 20.5 -127 q0 -52 -8 -102 q-8 -50 -17 -99 q-9 -49 -17 -98 q-8 -49 -8 -99 q0 -64 35 -104 q35 -40 101 -40 l0 -107 q-66 0 -101 -40.5 q-35 -40.5 -35 -103.5 Z" /><glyph glyph-name="" unicode="*" d="M381 863 l0 197 q0 19 2.5 36 q2.5 17 9.5 33 q-20 -25 -53 -45 l-172 -99 l-44 75 l172 100 q36 21 73 24 q-20 2 -37.5 7.5 q-17.5 5.5 -35.5 17.5 l-173 101 l44 75 l173 -100 q18 -11 32 -23 q14 -12 25 -29 q-9 18 -12.5 36.5 q-3.5 18.5 -3.5 38.5 l0 198 l88 0 l0 -197 q0 -41 -14 -72 q11 15 24.5 26 q13.5 11 30.5 22 l172 99 l44 -75 l-172 -100 q-17 -11 -33.5 -17 q-16.5 -6 -34.5 -8 q18 -2 34.5 -7.5 q16.5 -5.5 33.5 -16.5 l173 -101 l-44 -75 l-173 100 q-18 11 -32 22 q-14 11 -25 27 q16 -33 16 -72 l0 -198 l-88 0 Z" /><glyph glyph-name="" unicode="&#x2020;" d="M118 918 q0 31 20 55 q20 24 64 24 q69 -1 149.5 -14 q80.5 -13 159.5 -20 l-24 488 q40 23 93 23 q53 0 93 -23 l-24 -488 q39 3 79 9 q40 6 80 11 q40 5 77.5 9.5 q37.5 4.5 72.5 4.5 q44 0 64 -24 q20 -24 20 -55 l0 -60 l-393 0 l0 -416 l24 -777 q-40 -23 -93 -23 q-53 0 -93 23 l24 777 l0 416 l-393 0 l0 60 Z" /><glyph glyph-name="" unicode="&#x2021;" d="M118 258 l393 0 l0 600 l-393 0 l0 60 q0 31 20 55 q20 24 64 24 q69 -1 149.5 -14 q80.5 -13 159.5 -20 l-24 488 q40 23 93 23 q53 0 93 -23 l-24 -488 q39 3 79 9 q40 6 80 11 q40 5 77.5 9.5 q37.5 4.5 72.5 4.5 q44 0 64 -24 q20 -24 20 -55 l0 -60 l-393 0 l0 -600 l393 0 l0 -60 q0 -31 -20 -55 q-20 -24 -64 -24 q-69 1 -150 13.5 q-81 12.5 -159 19.5 l24 -487 q-40 -23 -93 -23 q-53 0 -93 23 l24 487 q-79 -7 -159.5 -19.5 q-80.5 -12.5 -149.5 -13.5 q-44 0 -64 24 q-20 24 -20 55 l0 60 Z" /><glyph glyph-name="" unicode="§" d="M805 1265 q-14 -22 -37 -22 q-15 0 -34.5 11 q-19.5 11 -47 24.5 q-27.5 13.5 -65.5 25 q-38 11.5 -90 11.5 q-48 0 -86 -12.5 q-38 -12.5 -65 -33.5 q-27 -21 -41 -49 q-14 -28 -14 -59 q0 -38 24.5 -66.5 q24.5 -28.5 64 -52 q39.5 -23.5 90.5 -45 q51 -21.5 103.5 -44.5 q52.5 -23 103.5 -50.5 q51 -27.5 90.5 -63 q39.5 -35.5 64 -81.5 q24.5 -46 24.5 -107 q0 -81 -39 -144.5 q-39 -63.5 -123 -101.5 q49 -37 80 -86 q31 -49 31 -118 q0 -70 -25 -129.5 q-25 -59.5 -73.5 -103 q-48.5 -43.5 -120 -68.5 q-71.5 -25 -163.5 -25 q-106 0 -192 34.5 q-86 34.5 -146 88.5 l42 68 q8 13 19 20 q11 7 28 7 q18 0 38 -14 q20 -14 49.5 -31.5 q29.5 -17.5 71.5 -31.5 q42 -14 105 -14 q51 0 90.5 12.5 q39.5 12.5 66.5 35 q27 22.5 41 53.5 q14 31 14 69 q0 45 -25 78 q-25 33 -66 58.5 q-41 25.5 -93.5 46.5 q-52.5 21 -107 43 q-54.5 22 -107 47.5 q-52.5 25.5 -93.5 60.5 q-41 35 -66 81.5 q-25 46.5 -25 110.5 q0 78 43 140.5 q43 62.5 136 97.5 q-50 38 -81.5 90.5 q-31.5 52.5 -31.5 127.5 q0 58 24 111.5 q24 53.5 70 93.5 q46 40 113.5 64 q67.5 24 153.5 24 q99 0 178.5 -31 q79.5 -31 137.5 -86 l-39 -65 ZM259 726 q0 -51 35 -86.5 q35 -35.5 89.5 -64.5 q54.5 -29 120.5 -55 q66 -26 128 -57 q54 26 78 63.5 q24 37.5 24 84.5 q0 36 -15 64 q-15 28 -41 51 q-26 23 -61 42 q-35 19 -74.5 36.5 q-39.5 17.5 -81.5 35 q-42 17.5 -82 37.5 q-66 -30 -93 -66.5 q-27 -36.5 -27 -84.5 Z" /><glyph glyph-name="" unicode="¶" d="M1330 1433 l0 -153 l-219 0 l0 -1481 l-157 0 l0 1481 l-277 0 l0 -1481 l-157 0 l0 861 q-104 0 -187 30.5 q-83 30.5 -141.5 83 q-58.5 52.5 -90 123.5 q-31.5 71 -31.5 152 q0 86 31.5 156.5 q31.5 70.5 90 121 q58.5 50.5 141.5 78.5 q83 28 187 28 l810 0 Z" /><glyph glyph-name="" unicode="^" d="M1028 696 l-130 0 q-17 0 -29.5 9.5 q-12.5 9.5 -19.5 24.5 l-230 443 q-26 53 -40 97 q-7 -23 -16 -47 q-9 -24 -20 -50 l-223 -443 q-6 -14 -19 -24 q-13 -10 -33 -10 l-136 0 l388 737 l115 0 l393 -737 Z" /><glyph glyph-name="" unicode="~" d="M763 613 q65 0 101.5 42.5 q36.5 42.5 37.5 112.5 l144 0 q0 -67 -18.5 -123 q-18.5 -56 -53 -96 q-34.5 -40 -85.5 -62 q-51 -22 -115 -22 q-52 0 -103 16 q-51 16 -98.5 35.5 q-47.5 19.5 -90.5 36 q-43 16.5 -79 16.5 q-65 0 -101.5 -42 q-36.5 -42 -37.5 -113 l-144 0 q0 67 18.5 123 q18.5 56 53 96 q34.5 40 85 62.5 q50.5 22.5 115.5 22.5 q52 0 103 -16.5 q51 -16.5 98.5 -36 q47.5 -19.5 90.5 -36 q43 -16.5 79 -16.5 Z" /><glyph glyph-name="" unicode="&#39;" d="M282 1433 l0 -290 l-16 -155 q-5 -32 -18.5 -49.5 q-13.5 -17.5 -43.5 -17.5 q-27 0 -41.5 17.5 q-14.5 17.5 -19.5 49.5 l-16 155 l0 290 l155 0 Z" /><glyph glyph-name="" unicode="&amp;" d="M667 1449 q79 0 144 -25.5 q65 -25.5 112 -67.5 q47 -42 74.5 -97.5 q27.5 -55.5 31.5 -115.5 l-111 -22 q-33 -8 -49 31 q-7 26 -22.5 54 q-15.5 28 -40 51 q-24.5 23 -59 38 q-34.5 15 -80.5 15 q-50 0 -90.5 -16 q-40.5 -16 -69 -44.5 q-28.5 -28.5 -43.5 -67 q-15 -38.5 -15 -83.5 q0 -35 8 -67 q8 -32 25.5 -65 q17.5 -33 44.5 -67 q27 -34 65 -72 l412 -419 q38 68 60.5 141 q22.5 73 30.5 147 q2 19 12 30 q10 11 28 11 l109 0 q-1 -115 -36.5 -225.5 q-35.5 -110.5 -100.5 -207.5 l300 -305 l-173 0 q-29 0 -47 7 q-18 7 -39 29 l-145 145 q-94 -91 -216.5 -144 q-122.5 -53 -269.5 -53 q-80 0 -156.5 27 q-76.5 27 -137.5 78.5 q-61 51.5 -98 125.5 q-37 74 -37 167 q0 70 23.5 132.5 q23.5 62.5 65 115.5 q41.5 53 99 95 q57.5 42 125.5 72 q-62 77 -90.5 150 q-28.5 73 -28.5 151 q0 73 26.5 137 q26.5 64 76.5 111.5 q50 47.5 121.5 75 q71.5 27.5 160.5 27.5 ZM548 129 q112 0 201 41 q89 41 157 109 l-423 427 q-106 -57 -159.5 -136.5 q-53.5 -79.5 -53.5 -173.5 q0 -65 24 -114.5 q24 -49.5 63 -83.5 q39 -34 89 -51.5 q50 -17.5 102 -17.5 Z" /><glyph glyph-name="" unicode="@" d="M1185 186 q-77 0 -126 37 q-49 37 -63 115 q-58 -80 -126 -115 q-68 -35 -146 -35 q-59 0 -103.5 20.5 q-44.5 20.5 -73.5 57 q-29 36.5 -43.5 86.5 q-14.5 50 -14.5 108 q0 85 32.5 171.5 q32.5 86.5 96.5 156 q64 69.5 159 113.5 q95 44 220 44 q67 0 118 -10.5 q51 -10.5 96 -30.5 l-94 -361 q-20 -76 -19 -123.5 q1 -47.5 15.5 -74.5 q14.5 -27 40.5 -36.5 q26 -9.5 57 -9.5 q49 0 93 28 q44 28 77.5 79 q33.5 51 53 122.5 q19.5 71.5 19.5 158.5 q0 138 -44 242 q-44 104 -121.5 173.5 q-77.5 69.5 -183 104 q-105.5 34.5 -227.5 34.5 q-134 0 -251 -51 q-117 -51 -204 -141 q-87 -90 -137.5 -213 q-50.5 -123 -50.5 -268 q0 -170 53.5 -298.5 q53.5 -128.5 146 -215.5 q92.5 -87 217.5 -131 q125 -44 268 -44 q152 0 268.5 33 q116.5 33 201.5 84 q20 12 35 7.5 q15 -4.5 22 -22.5 l26 -66 q-108 -72 -244.5 -113 q-136.5 -41 -308.5 -41 q-174 0 -323 55 q-149 55 -258.5 158.5 q-109.5 103.5 -172 253.5 q-62.5 150 -62.5 340 q0 109 27.5 210 q27.5 101 77.5 188.5 q50 87.5 120 160 q70 72.5 156 124 q86 51.5 185.5 80 q99.5 28.5 207.5 28.5 q92 0 180 -20 q88 -20 166.5 -59 q78.5 -39 144 -96.5 q65.5 -57.5 113.5 -132 q48 -74.5 74.5 -166 q26.5 -91.5 26.5 -198.5 q0 -108 -30.5 -199.5 q-30.5 -91.5 -84 -158.5 q-53.5 -67 -126.5 -105 q-73 -38 -157 -38 ZM759 306 q31 0 62.5 10 q31.5 10 61 35 q29.5 25 54.5 68 q25 43 42 108 l76 295 q-39 9 -86 9 q-75 0 -137.5 -31.5 q-62.5 -31.5 -107.5 -82.5 q-45 -51 -70.5 -117 q-25.5 -66 -25.5 -135 q0 -72 33 -115.5 q33 -43.5 98 -43.5 Z" /><glyph glyph-name="" unicode="©" d="M1087 474 q15 1 27 -11 l60 -64 q-57 -66 -139.5 -102.5 q-82.5 -36.5 -198.5 -36.5 q-98 0 -178.5 34 q-80.5 34 -138 95 q-57.5 61 -89 145 q-31.5 84 -31.5 184 q0 101 34 185.5 q34 84.5 95 145 q61 60.5 144.5 94 q83.5 33.5 181.5 33.5 q109 0 184.5 -33.5 q75.5 -33.5 132.5 -89.5 l-46 -65 q-5 -6 -13 -12 q-8 -6 -19 -6 q-14 0 -29.5 11 q-15.5 11 -40.5 24.5 q-25 13.5 -63.5 25 q-38.5 11.5 -96.5 11.5 q-71 0 -127 -22.5 q-56 -22.5 -96 -64.5 q-40 -42 -61 -102 q-21 -60 -21 -135 q0 -77 21.5 -137.5 q21.5 -60.5 59.5 -101.5 q38 -41 90.5 -62.5 q52.5 -21.5 114.5 -21.5 q52 0 87 8 q35 8 61.5 19.5 q26.5 11.5 48 25.5 q21.5 14 46.5 26 ZM101 716 q0 101 26 194.5 q26 93.5 74 175 q48 81.5 114.5 148 q66.5 66.5 147.5 114.5 q81 48 174 74 q93 26 194 26 q101 0 194.5 -26 q93.5 -26 174.5 -74 q81 -48 148 -114.5 q67 -66.5 114.5 -148 q47.5 -81.5 73.5 -175 q26 -93.5 26 -194.5 q0 -100 -26 -193.5 q-26 -93.5 -73.5 -174.5 q-47.5 -81 -114.5 -147.5 q-67 -66.5 -148 -114.5 q-81 -48 -174.5 -74 q-93.5 -26 -194.5 -26 q-101 0 -194 26 q-93 26 -174 74 q-81 48 -147.5 114.5 q-66.5 66.5 -114.5 147.5 q-48 81 -74 174 q-26 93 -26 194 ZM202 716 q0 -89 22 -171 q22 -82 62.5 -153.5 q40.5 -71.5 98 -129.5 q57.5 -58 127 -99.5 q69.5 -41.5 150.5 -64 q81 -22.5 169 -22.5 q88 0 169.5 22.5 q81.5 22.5 152 64 q70.5 41.5 128 99.5 q57.5 58 98.5 129.5 q41 71.5 63.5 153.5 q22.5 82 22.5 171 q0 134 -49.5 251.5 q-49.5 117.5 -135 205 q-85.5 87.5 -201.5 138 q-116 50.5 -248 50.5 q-88 0 -169 -23 q-81 -23 -150.5 -64.5 q-69.5 -41.5 -127 -100.5 q-57.5 -59 -98 -130.5 q-40.5 -71.5 -62.5 -154.5 q-22 -83 -22 -172 Z" /><glyph glyph-name="" unicode="®" d="M101 716 q0 101 26 194.5 q26 93.5 74 175 q48 81.5 114.5 148 q66.5 66.5 147.5 114.5 q81 48 174 74 q93 26 194 26 q101 0 194.5 -26 q93.5 -26 174.5 -74 q81 -48 148 -114.5 q67 -66.5 114.5 -148 q47.5 -81.5 73.5 -175 q26 -93.5 26 -194.5 q0 -100 -26 -193.5 q-26 -93.5 -73.5 -174.5 q-47.5 -81 -114.5 -147.5 q-67 -66.5 -148 -114.5 q-81 -48 -174.5 -74 q-93.5 -26 -194.5 -26 q-101 0 -194 26 q-93 26 -174 74 q-81 48 -147.5 114.5 q-66.5 66.5 -114.5 147.5 q-48 81 -74 174 q-26 93 -26 194 ZM202 716 q0 -89 22 -171 q22 -82 62.5 -153.5 q40.5 -71.5 98 -129.5 q57.5 -58 127 -99.5 q69.5 -41.5 150.5 -64 q81 -22.5 169 -22.5 q88 0 169.5 22.5 q81.5 22.5 152 64 q70.5 41.5 128 99.5 q57.5 58 98.5 129.5 q41 71.5 63.5 153.5 q22.5 82 22.5 171 q0 134 -49.5 251.5 q-49.5 117.5 -135 205 q-85.5 87.5 -201.5 138 q-116 50.5 -248 50.5 q-88 0 -169 -23 q-81 -23 -150.5 -64.5 q-69.5 -41.5 -127 -100.5 q-57.5 -59 -98 -130.5 q-40.5 -71.5 -62.5 -154.5 q-22 -83 -22 -172 ZM688 626 l0 -354 l-156 0 l0 892 l287 0 q173 0 255.5 -62.5 q82.5 -62.5 82.5 -184.5 q0 -94 -53 -160 q-53 -66 -159 -91 q17 -10 29.5 -25 q12.5 -15 23.5 -35 l228 -334 l-149 0 q-33 0 -48 25 l-202 302 q-9 13 -21.5 20 q-12.5 7 -38.5 7 l-79 0 ZM688 740 l115 0 q111 0 156 40.5 q45 40.5 45 116.5 q0 37 -9.5 65 q-9.5 28 -31 46 q-21.5 18 -57 27 q-35.5 9 -87.5 9 l-131 0 l0 -304 Z" /><glyph glyph-name="" unicode="&#x2122;" d="M988 1109 q6 -14 10.5 -26.5 q4.5 -12.5 9.5 -26.5 q7 25 21 53 l169 303 q10 13 17.5 17 q7.5 4 24.5 4 l105 0 l0 -592 l-109 0 l0 365 l8 74 l-183 -335 q-12 -28 -43 -28 l-18 0 q-31 0 -44 28 l-184 334 l9 -73 l0 -365 l-111 0 l0 592 l106 0 q17 0 24.5 -4 q7.5 -4 18.5 -17 l169 -303 ZM574 1433 l0 -105 l-180 0 l0 -487 l-125 0 l0 487 l-181 0 l0 105 l486 0 Z" /><glyph glyph-name="" unicode="°" d="M89 1128 q0 67 25 126 q25 59 69 102.5 q44 43.5 103 68.5 q59 25 128 25 q69 0 128.5 -25 q59.5 -25 103.5 -68.5 q44 -43.5 69.5 -102.5 q25.5 -59 25.5 -126 q0 -66 -25.5 -124.5 q-25.5 -58.5 -69.5 -102 q-44 -43.5 -103.5 -69 q-59.5 -25.5 -128.5 -25.5 q-69 0 -128 25.5 q-59 25.5 -103 69 q-44 43.5 -69 102 q-25 58.5 -25 124.5 ZM215 1127 q0 -42 15 -78.5 q15 -36.5 42 -63.5 q27 -27 63.5 -42.5 q36.5 -15.5 78.5 -15.5 q42 0 78.5 15.5 q36.5 15.5 63.5 42.5 q27 27 42 63.5 q15 36.5 15 78.5 q0 42 -15 79 q-15 37 -42 64.5 q-27 27.5 -63.5 43 q-36.5 15.5 -78.5 15.5 q-42 0 -78.5 -15.5 q-36.5 -15.5 -63.5 -43 q-27 -27.5 -42 -64.5 q-15 -37 -15 -79 Z" /><glyph glyph-name="" unicode="&#x20ac;" d="M23 899 l147 0 q20 126 67.5 227.5 q47.5 101.5 118 173 q70.5 71.5 162 109.5 q91.5 38 199.5 38 q67 0 124 -13 q57 -13 105.5 -37 q48.5 -24 89.5 -59 q41 -35 76 -79 l-62 -68 q-7 -9 -15.5 -15.5 q-8.5 -6.5 -22.5 -6.5 q-17 0 -35.5 19 q-18.5 19 -49.5 42 q-31 23 -79 42 q-48 19 -123 19 q-146 0 -242.5 -100 q-96.5 -100 -128.5 -292 l547 0 l0 -55 q0 -18 -13.5 -32.5 q-13.5 -14.5 -38.5 -14.5 l-507 0 q-1 -20 -1.5 -40 q-0.5 -20 -0.5 -41 q0 -16 0 -31 q0 -15 1 -30 l467 0 l0 -56 q0 -17 -14.5 -31.5 q-14.5 -14.5 -37.5 -14.5 l-406 0 q28 -206 123.5 -309 q95.5 -103 241.5 -103 q54 0 95 10.5 q41 10.5 71 26.5 q30 16 51.5 34.5 q21.5 18.5 37.5 34.5 q16 16 28.5 26.5 q12.5 10.5 24.5 10.5 q9 0 15 -3 q6 -3 14 -11 l75 -70 q-71 -101 -175 -158 q-104 -57 -246 -57 q-116 0 -209 39.5 q-93 39.5 -161.5 113 q-68.5 73.5 -111.5 179 q-43 105.5 -59 236.5 l-142 0 l0 102 l134 0 q-1 15 -1 30 q0 15 0 31 q0 20 0.5 40.5 q0.5 20.5 1.5 40.5 l-135 0 l0 102 Z" /><glyph glyph-name="" unicode="$" d="M490 -12 q-121 11 -220.5 59.5 q-99.5 48.5 -171.5 123.5 l54 82 q8 11 20 18 q12 7 26 7 q19 0 43 -19 q24 -19 59 -43.5 q35 -24.5 83.5 -47.5 q48.5 -23 116.5 -31 l37 531 q-70 21 -137.5 47.5 q-67.5 26.5 -121 69 q-53.5 42.5 -86 107 q-32.5 64.5 -32.5 161.5 q0 73 28.5 142.5 q28.5 69.5 83.5 123.5 q55 54 135 88.5 q80 34.5 183 38.5 l10 144 q1 19 14.5 34 q13.5 15 35.5 15 l66 0 l-14 -198 q105 -13 181.5 -54 q76.5 -41 135.5 -99 l-43 -66 q-20 -30 -46 -30 q-14 0 -34.5 12.5 q-20.5 12.5 -49 29 q-28.5 16.5 -67 33 q-38.5 16.5 -87.5 23.5 l-33 -484 q72 -22 142 -48 q70 -26 126 -67 q56 -41 90.5 -102.5 q34.5 -61.5 34.5 -153.5 q0 -90 -30 -169 q-30 -79 -87.5 -139 q-57.5 -60 -141 -97.5 q-83.5 -37.5 -190.5 -43.5 l-12 -176 q-1 -19 -15 -33.5 q-14 -14.5 -35 -14.5 l-66 0 l15 226 ZM883 407 q0 50 -18.5 86 q-18.5 36 -50.5 62 q-32 26 -75 45 q-43 19 -92 35 l-34 -498 q66 6 116 28.5 q50 22.5 84.5 57.5 q34.5 35 52 81.5 q17.5 46.5 17.5 102.5 ZM328 1071 q0 -48 17 -83.5 q17 -35.5 47 -62.5 q30 -27 70 -47 q40 -20 87 -36 l30 451 q-65 -6 -112.5 -26 q-47.5 -20 -78 -50 q-30.5 -30 -45.5 -67.5 q-15 -37.5 -15 -78.5 Z" /><glyph glyph-name="" unicode="¢" d="M562 -11 q-92 10 -169.5 49.5 q-77.5 39.5 -134 105.5 q-56.5 66 -88 157 q-31.5 91 -31.5 205 q0 111 33 204.5 q33 93.5 96 162.5 q63 69 155 109.5 q92 40.5 211 43.5 l13 179 q2 20 15 34.5 q13 14.5 34 14.5 l67 0 l-16 -233 q82 -12 147.5 -43.5 q65.5 -31.5 119.5 -80.5 l-46 -62 q-8 -11 -15.5 -16.5 q-7.5 -5.5 -21.5 -5.5 q-12 0 -28 8.5 q-16 8.5 -39 20.5 q-23 12 -54 24 q-31 12 -73 19 l-53 -762 q63 4 105.5 19.5 q42.5 15.5 72 32.5 q29.5 17 48.5 31 q19 14 35 14 q11 0 20 -4.5 q9 -4.5 14 -11.5 l49 -63 q-60 -71 -153 -108.5 q-93 -37.5 -200 -44.5 l-12 -175 q-2 -19 -15 -33.5 q-13 -14.5 -35 -14.5 l-66 0 l15 224 ZM316 506 q0 -161 67.5 -257.5 q67.5 -96.5 188.5 -119.5 l53 760 q-153 -11 -231 -112 q-78 -101 -78 -271 Z" /><glyph glyph-name="" unicode="£" d="M48 672 q0 26 16 44 q16 18 45 18 l134 0 l0 261 q0 94 27 176.5 q27 82.5 82 144 q55 61.5 136.5 97 q81.5 35.5 191.5 35.5 q78 0 139 -19.5 q61 -19.5 108 -53.5 q47 -34 81.5 -79 q34.5 -45 58.5 -97 l-72 -46 q-26 -13 -48.5 -11 q-22.5 2 -42.5 25 q-19 27 -39.5 50 q-20.5 23 -46.5 40.5 q-26 17.5 -59.5 27.5 q-33.5 10 -78.5 10 q-63 0 -110.5 -21 q-47.5 -21 -79.5 -60 q-32 -39 -48 -94 q-16 -55 -16 -123 l0 -263 l440 0 l0 -72 q0 -18 -14.5 -33 q-14.5 -15 -37.5 -15 l-388 0 l0 -243 q0 -75 -28.5 -129.5 q-28.5 -54.5 -78.5 -99.5 q28 5 57 8.5 q29 3.5 58 3.5 l677 0 l0 -76 q0 -14 -5.5 -27.5 q-5.5 -13.5 -16 -25 q-10.5 -11.5 -24.5 -18.5 q-14 -7 -32 -7 l-964 0 l0 115 q34 10 65.5 27 q31.5 17 55.5 42.5 q24 25.5 38.5 60 q14.5 34.5 14.5 80.5 l0 289 l-195 0 l0 58 Z" /><glyph glyph-name="" unicode="¥" d="M150 625 l307 0 l-408 808 l148 0 q26 0 42.5 -12.5 q16.5 -12.5 24.5 -32.5 l277 -566 q14 -34 23.5 -63 q9.5 -29 16.5 -58 q7 29 16 58 q9 29 23 63 l276 566 q8 17 24.5 31 q16.5 14 41.5 14 l149 0 l-409 -808 l308 0 l0 -102 l-341 0 l0 -105 l341 0 l0 -103 l-341 0 l0 -315 l-178 0 l0 315 l-341 0 l0 103 l341 0 l0 105 l-341 0 l0 102 Z" /><glyph glyph-name="" unicode="#" d="M793 423 l-84 -423 l-81 0 q-13 0 -24 6 q-11 6 -18.5 16 q-7.5 10 -10.5 24 q-3 14 0 31 l71 346 l-247 0 l-71 -355 q-6 -37 -29 -52.5 q-23 -15.5 -52 -15.5 l-80 0 l85 423 l-146 0 q-28 0 -40.5 16.5 q-12.5 16.5 -6.5 57.5 l8 57 l204 0 l65 326 l-232 0 l13 74 q5 29 23.5 43 q18.5 14 56.5 14 l158 0 l72 358 q6 30 27.5 47 q21.5 17 51.5 17 l80 0 l-84 -422 l247 0 l84 422 l79 0 q29 0 45.5 -19 q16.5 -19 11.5 -48 l-73 -355 l212 0 l-13 -75 q-5 -29 -23.5 -42.5 q-18.5 -13.5 -56.5 -13.5 l-138 0 l-65 -326 l179 0 q29 0 41.5 -16.5 q12.5 -16.5 6.5 -57.5 l-9 -57 l-237 0 ZM418 554 l247 0 l65 326 l-247 0 l-65 -326 Z" /><glyph glyph-name="" unicode="0" d="M1100 716 q0 -188 -40.5 -325.5 q-40.5 -137.5 -110.5 -227.5 q-70 -90 -165.5 -134 q-95.5 -44 -204.5 -44 q-110 0 -204.5 44 q-94.5 44 -164.5 134 q-70 90 -110 227.5 q-40 137.5 -40 325.5 q0 188 40 326 q40 138 110 228.5 q70 90.5 164.5 134.5 q94.5 44 204.5 44 q109 0 204.5 -44 q95.5 -44 165.5 -134.5 q70 -90.5 110.5 -228.5 q40.5 -138 40.5 -326 ZM915 716 q0 164 -27.5 275.5 q-27.5 111.5 -74 179.5 q-46.5 68 -107.5 97.5 q-61 29.5 -127 29.5 q-66 0 -127 -29.5 q-61 -29.5 -107 -97.5 q-46 -68 -73.5 -179.5 q-27.5 -111.5 -27.5 -275.5 q0 -164 27.5 -275 q27.5 -111 73.5 -179 q46 -68 107 -97.5 q61 -29.5 127 -29.5 q66 0 127 29.5 q61 29.5 107.5 97.5 q46.5 68 74 179 q27.5 111 27.5 275 Z" /><glyph glyph-name="" unicode="1" d="M250 136 l307 0 l0 977 q0 42 3 89 l-255 -219 q-13 -11 -26 -13.5 q-13 -2.5 -24 -0.5 q-11 2 -20.5 8 q-9.5 6 -14.5 13 l-56 77 l427 369 l145 0 l0 -1300 l282 0 l0 -136 l-768 0 l0 136 Z" /><glyph glyph-name="" unicode="2" d="M591 1449 q91 0 170 -27 q79 -27 137 -78.5 q58 -51.5 91 -125.5 q33 -74 33 -168 q0 -80 -24 -148.5 q-24 -68.5 -65 -130.5 q-41 -62 -94.5 -121 q-53.5 -59 -113.5 -119 l-378 -386 q40 11 81 17.5 q41 6.5 79 6.5 l480 0 q29 0 46 -17 q17 -17 17 -44 l0 -108 l-956 0 l0 61 q0 19 8 39 q8 20 25 37 l459 461 q57 58 104 111.5 q47 53.5 80 107.5 q33 54 51 109.5 q18 55.5 18 118.5 q0 63 -20 110.5 q-20 47.5 -54.5 78.5 q-34.5 31 -81.5 46.5 q-47 15.5 -101 15.5 q-55 0 -101 -16 q-46 -16 -81.5 -44.5 q-35.5 -28.5 -59.5 -67.5 q-24 -39 -34 -86 q-12 -35 -32.5 -46.5 q-20.5 -11.5 -57.5 -6.5 l-93 16 q14 98 54.5 173.5 q40.5 75.5 102 126.5 q61.5 51 140.5 77.5 q79 26.5 171 26.5 Z" /><glyph glyph-name="" unicode="3" d="M598 1449 q91 0 168 -26 q77 -26 132.5 -74 q55.5 -48 86.5 -116 q31 -68 31 -151 q0 -68 -17.5 -121.5 q-17.5 -53.5 -50 -94 q-32.5 -40.5 -78.5 -68.5 q-46 -28 -103 -45 q140 -37 210.5 -124 q70.5 -87 70.5 -218 q0 -99 -37.5 -178 q-37.5 -79 -102.5 -134.5 q-65 -55.5 -151.5 -85 q-86.5 -29.5 -185.5 -29.5 q-114 0 -195 28.5 q-81 28.5 -137 78.5 q-56 50 -92 118.5 q-36 68.5 -61 148.5 l77 32 q30 13 58.5 7 q28.5 -6 41.5 -33 q13 -28 32.5 -67 q19.5 -39 53.5 -75 q34 -36 86.5 -61 q52.5 -25 133.5 -25 q75 0 131.5 24.5 q56.5 24.5 94 63.5 q37.5 39 56.5 87 q19 48 19 95 q0 58 -15 106 q-15 48 -56 83 q-41 35 -112.5 55 q-71.5 20 -183.5 20 l0 129 q92 1 156.5 20 q64.5 19 105 52 q40.5 33 59 79 q18.5 46 18.5 102 q0 62 -19.5 108 q-19.5 46 -53.5 76 q-34 30 -80.5 45 q-46.5 15 -100.5 15 q-54 0 -100.5 -16 q-46.5 -16 -82 -44.5 q-35.5 -28.5 -59.5 -67.5 q-24 -39 -34 -86 q-13 -35 -32.5 -46.5 q-19.5 -11.5 -56.5 -6.5 l-93 16 q14 98 54 173.5 q40 75.5 101.5 126.5 q61.5 51 141 77.5 q79.5 26.5 171.5 26.5 Z" /><glyph glyph-name="" unicode="4" d="M886 517 l217 0 l0 -102 q0 -16 -9.5 -27 q-9.5 -11 -29.5 -11 l-178 0 l0 -377 l-156 0 l0 377 l-636 0 q-20 0 -34.5 11.5 q-14.5 11.5 -18.5 28.5 l-18 91 l697 925 l166 0 l0 -916 ZM730 1108 q0 26 1.5 56.5 q1.5 30.5 6.5 62.5 l-522 -710 l514 0 l0 591 Z" /><glyph glyph-name="" unicode="5" d="M982 1355 q0 -38 -23.5 -62.5 q-23.5 -24.5 -80.5 -24.5 l-450 0 l-66 -376 q57 13 107.5 18.5 q50.5 5.5 98.5 5.5 q112 0 198 -33 q86 -33 143.5 -91 q57.5 -58 87 -137 q29.5 -79 29.5 -172 q0 -114 -39.5 -206 q-39.5 -92 -109 -157.5 q-69.5 -65.5 -163.5 -100.5 q-94 -35 -203 -35 q-63 0 -121 12.5 q-58 12.5 -108.5 33.5 q-50.5 21 -93.5 48 q-43 27 -76 57 l55 76 q18 26 47 26 q20 0 45 -15.5 q25 -15.5 61 -34.5 q36 -19 84.5 -34.5 q48.5 -15.5 115.5 -15.5 q75 0 135 24 q60 24 103 68.5 q43 44.5 66 106.5 q23 62 23 139 q0 67 -19.5 121 q-19.5 54 -59 92 q-39.5 38 -98.5 59 q-59 21 -138 21 q-54 0 -112.5 -9 q-58.5 -9 -119.5 -29 l-112 33 l115 670 l679 0 l0 -78 Z" /><glyph glyph-name="" unicode="7" d="M1081 1433 l0 -80 q0 -34 -7.5 -56 q-7.5 -22 -14.5 -37 l-594 -1197 q-13 -26 -36 -44.5 q-23 -18.5 -61 -18.5 l-128 0 l602 1182 q13 25 26.5 46 q13.5 21 30.5 40 l-748 0 q-17 0 -30 13.5 q-13 13.5 -13 30.5 l0 121 l973 0 Z" /><glyph glyph-name="" unicode="9" d="M699 571 q22 29 41 55 q19 26 36 52 q-55 -44 -124 -67 q-69 -23 -146 -23 q-81 0 -153.5 27 q-72.5 27 -127.5 79.5 q-55 52.5 -87.5 129 q-32.5 76.5 -32.5 175.5 q0 94 35 176 q35 82 98 143 q63 61 150 96 q87 35 191 35 q103 0 187 -34 q84 -34 144 -95 q60 -61 92.5 -146 q32.5 -85 32.5 -188 q0 -62 -11.5 -117.5 q-11.5 -55.5 -33 -109 q-21.5 -53.5 -52.5 -106 q-31 -52.5 -70 -107.5 l-349 -504 q-13 -19 -37 -30.5 q-24 -11.5 -55 -11.5 l-164 0 l436 571 ZM864 1007 q0 67 -21.5 121.5 q-21.5 54.5 -59.5 92.5 q-38 38 -90.5 58.5 q-52.5 20.5 -115.5 20.5 q-66 0 -120 -21.5 q-54 -21.5 -93 -59.5 q-39 -38 -60 -91 q-21 -53 -21 -116 q0 -68 19.5 -121.5 q19.5 -53.5 56 -90.5 q36.5 -37 89 -56 q52.5 -19 117.5 -19 q72 0 127.5 23.5 q55.5 23.5 93.5 62.5 q38 39 58 90 q20 51 20 106 Z" /><glyph glyph-name="" unicode="&#x2044;" d="M-187 53 q-19 -31 -41 -42 q-22 -11 -51 -11 l-76 0 l818 1372 q18 29 41 45 q23 16 55 16 l77 0 l-823 -1380 Z" /><glyph glyph-name="" unicode="+" d="M652 1166 l0 -427 l408 0 l0 -135 l-408 0 l0 -430 l-145 0 l0 430 l-406 0 l0 135 l406 0 l0 427 l145 0 Z" /><glyph glyph-name="" unicode="÷" d="M100 739 l959 0 l0 -135 l-959 0 l0 135 ZM454 1026 q0 26 9.5 49 q9.5 23 26.5 40 q17 17 39.5 27 q22.5 10 49.5 10 q26 0 48.5 -10 q22.5 -10 39.5 -27 q17 -17 27 -40 q10 -23 10 -49 q0 -27 -10 -49.5 q-10 -22.5 -27 -39.5 q-17 -17 -39.5 -26.5 q-22.5 -9.5 -48.5 -9.5 q-27 0 -49.5 9.5 q-22.5 9.5 -39.5 26.5 q-17 17 -26.5 39.5 q-9.5 22.5 -9.5 49.5 ZM454 314 q0 26 9.5 49 q9.5 23 26.5 40 q17 17 39.5 27 q22.5 10 49.5 10 q26 0 48.5 -10 q22.5 -10 39.5 -27 q17 -17 27 -40 q10 -23 10 -49 q0 -27 -10 -49.5 q-10 -22.5 -27 -39.5 q-17 -17 -39.5 -26.5 q-22.5 -9.5 -48.5 -9.5 q-27 0 -49.5 9.5 q-22.5 9.5 -39.5 26.5 q-17 17 -26.5 39.5 q-9.5 22.5 -9.5 49.5 Z" /><glyph glyph-name="" unicode="=" d="M150 574 l860 0 l0 -135 l-860 0 l0 135 ZM150 909 l860 0 l0 -135 l-860 0 l0 135 Z" /><glyph glyph-name="" unicode="&#x2260;" d="M151 909 l490 0 l114 241 l129 0 l-114 -241 l241 0 l0 -135 l-304 0 l-95 -200 l399 0 l0 -135 l-462 0 l-119 -252 l-129 0 l119 252 l-269 0 l0 135 l332 0 l95 200 l-427 0 l0 135 Z" /><glyph glyph-name="" unicode="&#x2248;" d="M786 858 q29 0 56 7 q27 7 50 17.5 q23 10.5 40.5 22.5 q17.5 12 26.5 23 l24 -114 q-34 -47 -90.5 -70 q-56.5 -23 -117.5 -23 q-52 0 -103.5 16.5 q-51.5 16.5 -102 36.5 q-50.5 20 -98 36.5 q-47.5 16.5 -92.5 16.5 q-30 0 -57.5 -6.5 q-27.5 -6.5 -51 -17 q-23.5 -10.5 -40.5 -23 q-17 -12.5 -26 -24.5 l-29 109 q35 51 92 75.5 q57 24.5 123 24.5 q53 0 105 -16.5 q52 -16.5 102 -37 q50 -20.5 97.5 -37 q47.5 -16.5 91.5 -16.5 ZM786 520 q29 0 56 6.5 q27 6.5 50 17 q23 10.5 40.5 22.5 q17.5 12 26.5 23 l24 -113 q-34 -48 -90.5 -71 q-56.5 -23 -117.5 -23 q-52 0 -103.5 16.5 q-51.5 16.5 -102 37 q-50.5 20.5 -98 37 q-47.5 16.5 -92.5 16.5 q-30 0 -57.5 -7 q-27.5 -7 -51 -17.5 q-23.5 -10.5 -40.5 -23 q-17 -12.5 -26 -24.5 l-29 109 q35 51 92 75.5 q57 24.5 123 24.5 q53 0 105 -16.5 q52 -16.5 102 -36.5 q50 -20 97.5 -36.5 q47.5 -16.5 91.5 -16.5 Z" /><glyph glyph-name="" unicode="&lt;" d="M162 710 l773 401 l0 -127 q0 -17 -8 -29.5 q-8 -12.5 -28 -22.5 l-449 -228 q-20 -11 -42.5 -18.5 q-22.5 -7.5 -47.5 -13.5 q25 -5 47.5 -13 q22.5 -8 42.5 -18 l449 -227 q20 -10 28 -23 q8 -13 8 -29 l0 -128 l-773 402 l0 74 Z" /><glyph glyph-name="" unicode="&gt;" d="M225 234 l0 128 q0 16 8 29 q8 13 28 23 l449 227 q20 10 42 18 q22 8 47 13 q-25 6 -47 13.5 q-22 7.5 -42 18.5 l-449 228 q-20 10 -28 22.5 q-8 12.5 -8 29.5 l0 127 l773 -401 l0 -74 l-773 -402 Z" /><glyph glyph-name="" unicode="±" d="M652 1202 l0 -376 l407 0 l0 -136 l-407 0 l0 -368 l-146 0 l0 368 l-405 0 l0 136 l405 0 l0 376 l146 0 ZM101 215 l958 0 l0 -135 l-958 0 l0 135 Z" /><glyph glyph-name="" unicode="&#x2264;" d="M185 791 l774 377 l0 -122 q0 -16 -9 -30 q-9 -14 -35 -25 l-441 -207 q-46 -18 -97 -30 q26 -5 50.5 -13 q24.5 -8 46.5 -17 l441 -209 q26 -11 35 -25 q9 -14 9 -30 l0 -122 l-774 379 l0 74 ZM185 215 l774 0 l0 -135 l-774 0 l0 135 Z" /><glyph glyph-name="" unicode="&#x2265;" d="M975 791 l0 -74 l-774 -379 l0 122 q0 16 9 30 q9 14 35 25 l441 209 q22 9 46 17 q24 8 51 13 q-53 12 -97 30 l-441 207 q-26 11 -35 25 q-9 14 -9 30 l0 122 l774 -377 ZM975 80 l-774 0 l0 135 l774 0 l0 -135 Z" /><glyph glyph-name="" unicode="¬" d="M148 739 l860 0 l0 -424 l-151 0 l0 289 l-709 0 l0 135 Z" /><glyph glyph-name="" unicode="&#x221e;" d="M1054 254 q-56 0 -101.5 17 q-45.5 17 -84 46.5 q-38.5 29.5 -71 67.5 q-32.5 38 -60.5 80 q-29 -42 -61.5 -80 q-32.5 -38 -70.5 -67.5 q-38 -29.5 -84 -46.5 q-46 -17 -101 -17 q-62 0 -118 24 q-56 24 -99 68.5 q-43 44.5 -68 106.5 q-25 62 -25 138 q0 76 25 138 q25 62 68 106 q43 44 99 68.5 q56 24.5 118 24.5 q55 0 101 -17 q46 -17 84 -46.5 q38 -29.5 70.5 -67.5 q32.5 -38 61.5 -80 q28 42 60.5 80 q32.5 38 71 67.5 q38.5 29.5 84 46.5 q45.5 17 101.5 17 q62 0 118.5 -24.5 q56.5 -24.5 99 -68.5 q42.5 -44 67.5 -106 q25 -62 25 -138 q0 -76 -25 -138 q-25 -62 -67.5 -106.5 q-42.5 -44.5 -99 -68.5 q-56.5 -24 -118.5 -24 ZM427 400 q36 0 67 15 q31 15 58.5 41.5 q27.5 26.5 52.5 61 q25 34.5 50 73.5 q-25 39 -50 73.5 q-25 34.5 -52.5 60.5 q-27.5 26 -58.5 41.5 q-31 15.5 -67 15.5 q-36 0 -67.5 -12 q-31.5 -12 -55.5 -35.5 q-24 -23.5 -38 -59.5 q-14 -36 -14 -84 q0 -48 14 -84 q14 -36 38 -59.5 q24 -23.5 55.5 -35.5 q31.5 -12 67.5 -12 ZM1047 400 q36 0 67.5 12 q31.5 12 55 35.5 q23.5 23.5 37.5 59.5 q14 36 14 84 q0 48 -14 84 q-14 36 -37.5 59.5 q-23.5 23.5 -55 35.5 q-31.5 12 -67.5 12 q-36 0 -67 -15.5 q-31 -15.5 -59 -41.5 q-28 -26 -53 -60.5 q-25 -34.5 -50 -73.5 q25 -39 50 -73.5 q25 -34.5 53 -61 q28 -26.5 59 -41.5 q31 -15 67 -15 Z" /><glyph glyph-name="" unicode="&#x2202;" d="M341 1337 q39 27 76 48 q37 21 76 35 q39 14 82 21 q43 7 94 7 q90 0 164 -37 q74 -37 126 -107 q52 -70 80.5 -171 q28.5 -101 28.5 -229 q0 -202 -37 -370.5 q-37 -168.5 -110.5 -290 q-73.5 -121.5 -184 -189 q-110.5 -67.5 -258.5 -67.5 q-86 0 -158.5 28.5 q-72.5 28.5 -124.5 82 q-52 53.5 -81 129.5 q-29 76 -29 171 q0 115 38 216 q38 101 106.5 175 q68.5 74 162.5 117 q94 43 206 43 q104 0 181 -44.5 q77 -44.5 125 -129.5 q2 36 2.5 69.5 q0.5 33.5 0.5 59.5 q0 198 -69.5 299.5 q-69.5 101.5 -192.5 101.5 q-43 0 -78.5 -10 q-35.5 -10 -63.5 -22.5 q-28 -12.5 -49 -22.5 q-21 -10 -34 -10 q-11 0 -20 6 q-9 6 -20 24 l-39 67 ZM500 127 q66 0 125 27.5 q59 27.5 107 83 q48 55.5 83.5 140.5 q35.5 85 55.5 199 q-10 44 -28.5 85.5 q-18.5 41.5 -49 74 q-30.5 32.5 -74 52 q-43.5 19.5 -102.5 19.5 q-84 0 -149 -31 q-65 -31 -109.5 -85.5 q-44.5 -54.5 -67 -129 q-22.5 -74.5 -22.5 -161.5 q0 -65 16.5 -116 q16.5 -51 46.5 -86 q30 -35 72.5 -53.5 q42.5 -18.5 95.5 -18.5 Z" /><glyph glyph-name="" unicode="&#x222b;" d="M486 1243 q12 102 45 175 q33 73 82.5 120 q49.5 47 113.5 69.5 q64 22.5 140 22.5 q35 0 72 -6 q37 -6 67 -23 l-10 -75 q-3 -12 -7.5 -18.5 q-4.5 -6.5 -14.5 -9.5 q-10 -3 -26 -4 q-16 -1 -41 -1 q-59 0 -102.5 -13.5 q-43.5 -13.5 -74 -42.5 q-30.5 -29 -48.5 -75.5 q-18 -46.5 -26 -112.5 l-130 -1211 q-12 -102 -45 -175 q-33 -73 -82.5 -120.5 q-49.5 -47.5 -114 -70 q-64.5 -22.5 -139.5 -22.5 q-35 0 -72 6.5 q-37 6.5 -67 22.5 l10 76 q3 12 7.5 18.5 q4.5 6.5 14 9.5 q9.5 3 25.5 3.5 q16 0.5 42 0.5 q58 0 101.5 13.5 q43.5 13.5 74 43 q30.5 29.5 49 76 q18.5 46.5 26.5 112.5 l130 1211 Z" /><glyph glyph-name="" unicode="&#x221a;" d="M684 0 l-150 0 l-250 663 l-171 0 q-28 0 -48.5 16.5 q-20.5 16.5 -20.5 57.5 l0 57 l335 0 q23 0 37 -11 q14 -11 19 -26 l149 -411 q11 -33 17.5 -66.5 q6.5 -33.5 10.5 -67.5 q5 27 11 55 q6 28 14 57 l433 1351 q5 16 19 26.5 q14 10.5 33 10.5 l115 0 l-553 -1712 Z" /><glyph glyph-name="" unicode="&#x220f;" d="M1313 1433 l0 -153 l-187 0 l0 -1623 l-184 0 l0 1623 l-501 0 l0 -1623 l-184 0 l0 1623 l-187 0 l0 153 l1243 0 Z" /><glyph glyph-name="" unicode="&#x2211;" d="M74 1433 l1199 0 l0 -153 l-923 0 l573 -709 l0 -52 l-573 -709 l923 0 l0 -153 l-1199 0 l0 65 q0 14 4 28.5 q4 14.5 15 26.5 l629 770 l-629 765 q-11 13 -15 27.5 q-4 14.5 -4 28.5 l0 65 Z" /><glyph glyph-name="" unicode="&#x25ca;" d="M106 701 l412 821 l124 0 l412 -821 l-412 -820 l-124 0 l-412 820 ZM281 701 l256 -528 q29 -64 43 -130 q8 32 18 64.5 q10 32.5 26 64.5 l258 529 l-262 537 q-28 57 -40 119 q-7 -31 -16 -60 q-9 -29 -23 -58 l-260 -538 Z" /><glyph glyph-name="" unicode="&#x192;" d="M187 861 l-112 13 q-22 5 -35 15.5 q-13 10.5 -13 30.5 l0 73 l160 0 l0 98 q0 87 24.5 154.5 q24.5 67.5 69.5 114 q45 46.5 109 70.5 q64 24 144 24 q68 0 126 -20 l-5 -89 q-2 -24 -26 -26 q-24 -2 -66 -2 q-46 0 -83.5 -12 q-37.5 -12 -64 -39 q-26.5 -27 -41 -71 q-14.5 -44 -14.5 -109 l0 -93 l291 0 l0 -129 l-286 0 l0 -895 q0 -82 -20 -149 q-20 -67 -61 -115 q-41 -48 -104 -74 q-63 -26 -149 -26 q-48 0 -86.5 8.5 q-38.5 8.5 -82.5 26.5 l19 78 q6 23 17 29.5 q11 6.5 24 6.5 q13 0 34 -7.5 q21 -7.5 59 -7.5 q85 0 128.5 52 q43.5 52 43.5 158 l0 912 Z" /><glyph glyph-name="" unicode="l" d="M325 1473 l0 -1473 l-178 0 l0 1473 l178 0 Z" /><glyph glyph-name="" unicode="6" d="M474 896 q-20 -24 -37 -47 q-17 -23 -34 -45 q51 35 112.5 54.5 q61.5 19.5 133.5 19.5 q87 0 164 -28.5 q77 -28.5 134.5 -83 q57.5 -54.5 91.5 -134 q34 -79.5 34 -181.5 q0 -99 -36 -184 q-36 -85 -100.5 -148 q-64.5 -63 -155 -99 q-90.5 -36 -199.5 -36 q-108 0 -196 34.5 q-88 34.5 -149.5 98 q-61.5 63.5 -95 154 q-33.5 90.5 -33.5 202.5 q0 94 41.5 200.5 q41.5 106.5 132.5 227.5 l364 489 q14 18 38.5 30.5 q24.5 12.5 56.5 12.5 l158 0 l-425 -537 ZM279 442 q0 -69 20 -126 q20 -57 58.5 -98 q38.5 -41 94 -63.5 q55.5 -22.5 126.5 -22.5 q72 0 130.5 23 q58.5 23 100 64 q41.5 41 64 97 q22.5 56 22.5 122 q0 70 -22 126.5 q-22 56.5 -62.5 96 q-40.5 39.5 -96.5 60.5 q-56 21 -123 21 q-72 0 -130 -24.5 q-58 -24.5 -98.5 -66 q-40.5 -41.5 -62 -96 q-21.5 -54.5 -21.5 -113.5 Z" /><glyph glyph-name="" unicode="8" d="M580 -16 q-107 0 -196 28.5 q-89 28.5 -153 81.5 q-64 53 -99 128.5 q-35 75.5 -35 169.5 q0 138 72 227.5 q72 89.5 206 127.5 q-113 42 -170.5 125.5 q-57.5 83.5 -57.5 199.5 q0 79 31 148 q31 69 88 120 q57 51 136.5 80 q79.5 29 177.5 29 q97 0 177 -29 q80 -29 137 -80 q57 -51 88 -120 q31 -69 31 -148 q0 -116 -58 -199.5 q-58 -83.5 -170 -125.5 q134 -38 206 -127.5 q72 -89.5 72 -227.5 q0 -94 -35.5 -169.5 q-35.5 -75.5 -99 -128.5 q-63.5 -53 -152.5 -81.5 q-89 -28.5 -196 -28.5 ZM580 126 q70 0 125.5 19.5 q55.5 19.5 94 55 q38.5 35.5 59 85 q20.5 49.5 20.5 109.5 q0 74 -24.5 126.5 q-24.5 52.5 -66 85.5 q-41.5 33 -95.5 48.5 q-54 15.5 -113 15.5 q-59 0 -113 -15.5 q-54 -15.5 -95.5 -48.5 q-41.5 -33 -66 -85.5 q-24.5 -52.5 -24.5 -126.5 q0 -60 20.5 -109.5 q20.5 -49.5 59 -85 q38.5 -35.5 94 -55 q55.5 -19.5 125.5 -19.5 ZM580 814 q70 0 119.5 21.5 q49.5 21.5 80.5 57 q31 35.5 45 81.5 q14 46 14 95 q0 50 -16.5 94 q-16.5 44 -49 77 q-32.5 33 -81 52 q-48.5 19 -112.5 19 q-64 0 -112.5 -19 q-48.5 -19 -81 -52 q-32.5 -33 -49 -77 q-16.5 -44 -16.5 -94 q0 -49 14 -95 q14 -46 45 -81.5 q31 -35.5 80.5 -57 q49.5 -21.5 119.5 -21.5 Z" /><glyph glyph-name="" unicode="%" d="M722 1087 q0 -84 -26 -150.5 q-26 -66.5 -69.5 -112 q-43.5 -45.5 -101 -69.5 q-57.5 -24 -121.5 -24 q-67 0 -125 24 q-58 24 -100.5 69.5 q-42.5 45.5 -66.5 112 q-24 66.5 -24 150.5 q0 86 24 153 q24 67 66.5 113 q42.5 46 100.5 70 q58 24 125 24 q68 0 126 -24 q58 -24 101 -70 q43 -46 67 -113 q24 -67 24 -153 ZM584 1087 q0 66 -14 112 q-14 46 -38.5 75.5 q-24.5 29.5 -57.5 42.5 q-33 13 -70 13 q-37 0 -69 -13 q-32 -13 -56 -42.5 q-24 -29.5 -38 -75.5 q-14 -46 -14 -112 q0 -65 14 -110.5 q14 -45.5 38 -74 q24 -28.5 56 -41 q32 -12.5 69 -12.5 q37 0 70 12.5 q33 12.5 57.5 41 q24.5 28.5 38.5 74 q14 45.5 14 110.5 ZM1229 1403 q10 12 23.5 21 q13.5 9 36.5 9 l129 0 l-1048 -1404 q-9 -13 -23 -21 q-14 -8 -34 -8 l-131 0 l1047 1403 ZM1515 338 q0 -84 -26 -150 q-26 -66 -69.5 -111.5 q-43.5 -45.5 -101 -69.5 q-57.5 -24 -121.5 -24 q-68 0 -125.5 24 q-57.5 24 -100 69.5 q-42.5 45.5 -66.5 111.5 q-24 66 -24 150 q0 86 24 153.5 q24 67.5 66.5 113.5 q42.5 46 100 70 q57.5 24 125.5 24 q67 0 125.5 -24 q58.5 -24 101 -70 q42.5 -46 67 -113.5 q24.5 -67.5 24.5 -153.5 ZM1377 338 q0 66 -14 112.5 q-14 46.5 -38.5 75.5 q-24.5 29 -57.5 42 q-33 13 -70 13 q-37 0 -69.5 -13 q-32.5 -13 -56.5 -42 q-24 -29 -37.5 -75.5 q-13.5 -46.5 -13.5 -112.5 q0 -65 13.5 -110 q13.5 -45 37.5 -73.5 q24 -28.5 56.5 -41 q32.5 -12.5 69.5 -12.5 q37 0 70 12.5 q33 12.5 57.5 41 q24.5 28.5 38.5 73.5 q14 45 14 110 Z" /><glyph glyph-name="" unicode="¡" d="M168 -343 l0 541 q0 45 2 87.5 q2 42.5 5 86 q3 43.5 7.5 89.5 q4.5 46 10.5 98 l120 0 q6 -52 10.5 -98 q4.5 -46 7.5 -89.5 q3 -43.5 5 -86 q2 -42.5 2 -87.5 l0 -541 l-170 0 ZM125 904 q0 27 9.5 49.5 q9.5 22.5 26.5 39.5 q17 17 39.5 26.5 q22.5 9.5 49.5 9.5 q26 0 48.5 -9.5 q22.5 -9.5 39.5 -26.5 q17 -17 27 -39.5 q10 -22.5 10 -49.5 q0 -26 -10 -49 q-10 -23 -27 -40 q-17 -17 -39.5 -27 q-22.5 -10 -48.5 -10 q-27 0 -49.5 10 q-22.5 10 -39.5 27 q-17 17 -26.5 40 q-9.5 23 -9.5 49 Z" /><glyph glyph-name="" unicode="¿" d="M808 -212 q-31 -29 -68.5 -55 q-37.5 -26 -81.5 -46 q-44 -20 -96 -31.5 q-52 -11.5 -112 -11.5 q-79 0 -146 22 q-67 22 -116 63 q-49 41 -77 100 q-28 59 -28 134 q0 76 22.5 129 q22.5 53 57 91 q34.5 38 75 65 q40.5 27 76.5 51 q36 24 61.5 48.5 q25.5 24.5 29.5 57.5 l18 154 l121 0 l12 -167 q4 -47 -17 -79.5 q-21 -32.5 -55 -58.5 q-34 -26 -75 -50 q-41 -24 -76.5 -54 q-35.5 -30 -59.5 -71 q-24 -41 -24 -101 q0 -44 17 -78.5 q17 -34.5 46.5 -59 q29.5 -24.5 68.5 -37.5 q39 -13 84 -13 q61 0 104.5 15 q43.5 15 74 33 q30.5 18 49 33 q18.5 15 30.5 15 q26 0 38 -23 l47 -75 ZM362 903 q0 26 9.5 49 q9.5 23 26 40 q16.5 17 39.5 27 q23 10 49 10 q26 0 49 -10 q23 -10 40 -27 q17 -17 27 -40 q10 -23 10 -49 q0 -27 -10 -49.5 q-10 -22.5 -27 -39.5 q-17 -17 -40 -26.5 q-23 -9.5 -49 -9.5 q-26 0 -49 9.5 q-23 9.5 -39.5 26.5 q-16.5 17 -26 39.5 q-9.5 22.5 -9.5 49.5 Z" /><glyph glyph-name="" unicode="&#x2030;" d="M722 1087 q0 -84 -26 -150.5 q-26 -66.5 -69.5 -112 q-43.5 -45.5 -101 -69.5 q-57.5 -24 -121.5 -24 q-67 0 -125 24 q-58 24 -100.5 69.5 q-42.5 45.5 -66.5 112 q-24 66.5 -24 150.5 q0 86 24 153 q24 67 66.5 113 q42.5 46 100.5 70 q58 24 125 24 q68 0 126 -24 q58 -24 101 -70 q43 -46 67 -113 q24 -67 24 -153 ZM584 1087 q0 66 -14 112 q-14 46 -38.5 75.5 q-24.5 29.5 -57.5 42.5 q-33 13 -70 13 q-37 0 -69 -13 q-32 -13 -56 -42.5 q-24 -29.5 -38 -75.5 q-14 -46 -14 -112 q0 -65 14 -110.5 q14 -45.5 38 -74 q24 -28.5 56 -41 q32 -12.5 69 -12.5 q37 0 70 12.5 q33 12.5 57.5 41 q24.5 28.5 38.5 74 q14 45.5 14 110.5 ZM1229 1403 q10 12 23.5 21 q13.5 9 36.5 9 l129 0 l-1048 -1404 q-9 -13 -23 -21 q-14 -8 -34 -8 l-131 0 l1047 1403 ZM1515 338 q0 -84 -26 -150 q-26 -66 -69.5 -111.5 q-43.5 -45.5 -101 -69.5 q-57.5 -24 -121.5 -24 q-68 0 -125.5 24 q-57.5 24 -100 69.5 q-42.5 45.5 -66.5 111.5 q-24 66 -24 150 q0 86 24 153.5 q24 67.5 66.5 113.5 q42.5 46 100 70 q57.5 24 125.5 24 q67 0 125.5 -24 q58.5 -24 101 -70 q42.5 -46 67 -113.5 q24.5 -67.5 24.5 -153.5 ZM1377 338 q0 66 -14 112.5 q-14 46.5 -38.5 75.5 q-24.5 29 -57.5 42 q-33 13 -70 13 q-37 0 -69.5 -13 q-32.5 -13 -56.5 -42 q-24 -29 -37.5 -75.5 q-13.5 -46.5 -13.5 -112.5 q0 -65 13.5 -110 q13.5 -45 37.5 -73.5 q24 -28.5 56.5 -41 q32.5 -12.5 69.5 -12.5 q37 0 70 12.5 q33 12.5 57.5 41 q24.5 28.5 38.5 73.5 q14 45 14 110 ZM2248 338 q0 -84 -26 -150 q-26 -66 -69.5 -111.5 q-43.5 -45.5 -101 -69.5 q-57.5 -24 -120.5 -24 q-68 0 -125.5 24 q-57.5 24 -100.5 69.5 q-43 45.5 -67 111.5 q-24 66 -24 150 q0 86 24 153.5 q24 67.5 67 113.5 q43 46 100.5 70 q57.5 24 125.5 24 q67 0 125 -24 q58 -24 101 -70 q43 -46 67 -113.5 q24 -67.5 24 -153.5 ZM2110 338 q0 66 -14 112.5 q-14 46.5 -38.5 75.5 q-24.5 29 -57 42 q-32.5 13 -69.5 13 q-37 0 -69.5 -13 q-32.5 -13 -56.5 -42 q-24 -29 -37.5 -75.5 q-13.5 -46.5 -13.5 -112.5 q0 -65 13.5 -110 q13.5 -45 37.5 -73.5 q24 -28.5 56.5 -41 q32.5 -12.5 69.5 -12.5 q37 0 69.5 12.5 q32.5 12.5 57 41 q24.5 28.5 38.5 73.5 q14 45 14 110 Z" /><glyph glyph-name="" unicode="&#xf8ff;" d="M636 1471 q-85 -58 -150.5 -149 q-65.5 -91 -113.5 -201 q-48 -110 -80.5 -232 q-32.5 -122 -51.5 -241.5 q-19 -119.5 -27.5 -229.5 q-8.5 -110 -8.5 -195 q0 -85 11 -144.5 q11 -59.5 30.5 -104.5 q19.5 -45 45.5 -79 q26 -34 57 -68 l-12 -12 q-59 55 -106 113 q-47 58 -80.5 127.5 q-33.5 69.5 -51.5 155.5 q-18 86 -18 198 q0 154 35 308.5 q35 154.5 104 296 q69 141.5 172.5 262.5 q103.5 121 240.5 207 l4 -12 ZM1080 767 l-174 0 l0 -342 q0 -38 25.5 -60 q25.5 -22 78.5 -22 q9 0 25 0.5 q16 0.5 33 3.5 l20 -214 q-50 -20 -107 -31 q-57 -11 -119 -11 q-96 0 -160 23 q-64 23 -103 68 q-39 45 -55 111 q-16 66 -16 152 l0 300 l-100 46 l0 218 l120 12 l100 244 l258 0 l0 -252 l174 0 l0 -246 ZM942 -173 q85 57 150.5 148 q65.5 91 113.5 200.5 q48 109.5 80 231.5 q32 122 52 241 q20 119 28 228 q8 109 8 195 q0 86 -11 146.5 q-11 60.5 -30.5 105.5 q-19.5 45 -45.5 79.5 q-26 34.5 -57 68.5 l12 12 q59 -56 106.5 -114 q47.5 -58 80.5 -128 q33 -70 51 -156 q18 -86 18 -196 q0 -154 -35 -308.5 q-35 -154.5 -104 -296 q-69 -141.5 -172.5 -262.5 q-103.5 -121 -240.5 -207 l-4 12 Z" /><glyph glyph-name="" unicode="" d="" /><glyph glyph-name="" unicode="ñ" d="M283 1433 q13 0 22 -1.5 q9 -1.5 16 -5 q7 -3.5 14 -10 q7 -6.5 15 -16.5 l829 -1079 q-2 26 -3.5 50.5 q-1.5 24.5 -1.5 46.5 l0 1015 l170 0 l0 -1433 l-97 0 q-23 0 -38.5 8 q-15.5 8 -30.5 27 l-829 1079 q2 -25 3 -49 q1 -24 1 -44 l0 -1021 l-170 0 l0 1433 l100 0 ZM904 1662 q23 0 40.5 8.5 q17.5 8.5 29.5 23 q12 14.5 18 32.5 q6 18 6 36 l109 0 q0 -43 -12 -82.5 q-12 -39.5 -35.5 -70 q-23.5 -30.5 -57.5 -48.5 q-34 -18 -78 -18 q-45 0 -80.5 16.5 q-35.5 16.5 -66 36 q-30.5 19.5 -57.5 36 q-27 16.5 -55 16.5 q-23 0 -40 -9 q-17 -9 -28.5 -23.5 q-11.5 -14.5 -17.5 -32.5 q-6 -18 -6 -36 l-111 0 q0 43 12.5 83 q12.5 40 35.5 70.5 q23 30.5 57 48.5 q34 18 78 18 q45 0 81 -16.5 q36 -16.5 66 -36 q30 -19.5 57 -36 q27 -16.5 55 -16.5 Z" /><glyph glyph-name="" unicode="&#x2206;" d="M64 55 q0 54 23 115 l532 1263 l196 0 l527 -1259 q11 -29 17.5 -58 q6.5 -29 6.5 -59 l0 -57 l-1302 0 l0 55 ZM265 156 l882 0 l-392 959 q-11 28 -23 65.5 q-12 37.5 -23 80.5 q-11 -45 -23 -81.5 q-12 -36.5 -23 -65.5 l-398 -958 Z" /><glyph glyph-name="" unicode="&#x2126;" d="M932 224 q81 15 151 63.5 q70 48.5 121 122 q51 73.5 80.5 167.5 q29.5 94 29.5 200 q0 126 -40.5 220 q-40.5 94 -109 157 q-68.5 63 -159 94.5 q-90.5 31.5 -190.5 31.5 q-99 0 -189.5 -31.5 q-90.5 -31.5 -159 -94.5 q-68.5 -63 -109 -157 q-40.5 -94 -40.5 -220 q0 -106 29 -200 q29 -94 80.5 -167.5 q51.5 -73.5 121.5 -122 q70 -48.5 151 -63.5 l0 -224 l-521 0 q-30 0 -48 17.5 q-18 17.5 -18 45.5 l0 100 l286 0 q37 0 75 -4 q38 -4 76 -9 q-92 31 -170 90.5 q-78 59.5 -134.5 141 q-56.5 81.5 -88.5 182.5 q-32 101 -32 215 q0 150 54.5 273.5 q54.5 123.5 148.5 211.5 q94 88 220 136 q126 48 269 48 q143 0 268.5 -48 q125.5 -48 219.5 -136 q94 -88 148 -211.5 q54 -123.5 54 -273.5 q0 -114 -32 -215 q-32 -101 -89 -182.5 q-57 -81.5 -135 -141 q-78 -59.5 -169 -90.5 q38 5 76 9 q38 4 75 4 l287 0 l0 -100 q0 -28 -18.5 -45.5 q-18.5 -17.5 -47.5 -17.5 l-521 0 l0 224 Z" /><glyph glyph-name="" unicode="µ" d="M359 1013 l0 -613 q0 -114 52.5 -180.5 q52.5 -66.5 159.5 -66.5 q92 0 160.5 49.5 q68.5 49.5 114.5 138.5 l0 672 l178 0 l0 -739 q0 -78 40 -114 q40 -36 106 -36 l59 0 l0 -72 q0 -23 -31.5 -42.5 q-31.5 -19.5 -89.5 -19.5 q-42 0 -80.5 12 q-38.5 12 -70 37.5 q-31.5 25.5 -54.5 64 q-23 38.5 -33 91.5 q-60 -90 -136.5 -139.5 q-76.5 -49.5 -172.5 -49.5 q-75 0 -130.5 23.5 q-55.5 23.5 -93.5 68.5 q6 -41 8.5 -83 q2.5 -42 2.5 -79 l0 -279 l-89 0 q-38 0 -58.5 20 q-20.5 20 -20.5 56 l0 1280 l179 0 Z" /><glyph glyph-name="" unicode="&#x104;" d="M1375 -211 q7 0 11.5 -4 q4.5 -4 6.5 -9 l28 -66 q-30 -23 -76.5 -37.5 q-46.5 -14.5 -97.5 -14.5 q-88 0 -138.5 39.5 q-50.5 39.5 -50.5 105.5 q0 58 39.5 108.5 q39.5 50.5 99.5 88.5 q-26 0 -42 13 q-16 13 -24 33 l-134 346 l-643 0 l-134 -346 q-6 -18 -23 -32 q-17 -14 -42 -14 l-150 0 l573 1433 l196 0 l573 -1433 l-36 0 q-20 -11 -41 -26.5 q-21 -15.5 -38 -35 q-17 -19.5 -28 -43 q-11 -23.5 -11 -49.5 q0 -38 24.5 -59.5 q24.5 -21.5 66.5 -21.5 q23 0 38 3.5 q15 3.5 25 8 q10 4.5 16.5 8.5 q6.5 4 11.5 4 ZM408 532 l535 0 l-225 583 q-11 26 -21.5 60 q-10.5 34 -21.5 73 q-10 -39 -20.5 -73.5 q-10.5 -34.5 -21.5 -60.5 l-225 -582 Z" /><glyph glyph-name="" unicode="ð" d="M3 780 l196 0 l0 653 l536 0 q158 0 288 -51.5 q130 -51.5 223 -146 q93 -94.5 144 -226.5 q51 -132 51 -293 q0 -161 -51 -293 q-51 -132 -144 -226 q-93 -94 -223 -145.5 q-130 -51.5 -288 -51.5 l-536 0 l0 666 l-196 0 l0 114 ZM1242 716 q0 132 -36 236 q-36 104 -102 176 q-66 72 -160 110 q-94 38 -209 38 l-341 0 l0 -496 l290 0 l0 -114 l-290 0 l0 -509 l341 0 q115 0 209 38 q94 38 160 109.5 q66 71.5 102 175.5 q36 104 36 236 Z" /><glyph glyph-name="" unicode="&#x118;" d="M1039 -211 q7 0 11.5 -4 q4.5 -4 6.5 -9 l28 -66 q-30 -23 -76.5 -37.5 q-46.5 -14.5 -97.5 -14.5 q-88 0 -138.5 39.5 q-50.5 39.5 -50.5 105.5 q0 58 39.5 108.5 q39.5 50.5 99.5 88.5 l-678 0 l0 1433 l883 0 l0 -158 l-689 0 l0 -476 l558 0 l0 -152 l-558 0 l0 -489 l690 0 l-1 -158 l-91 0 q-20 -11 -41 -26.5 q-21 -15.5 -38 -35 q-17 -19.5 -28 -43 q-11 -23.5 -11 -49.5 q0 -38 24.5 -59.5 q24.5 -21.5 66.5 -21.5 q23 0 38 3.5 q15 3.5 25 8 q10 4.5 16.5 8.5 q6.5 4 11.5 4 Z" /><glyph glyph-name="" unicode="&#x126;" d="M1351 1153 l164 0 l0 -115 l-164 0 l0 -1038 l-194 0 l0 652 l-773 0 l0 -652 l-194 0 l0 1038 l-163 0 l0 115 l163 0 l0 280 l194 0 l0 -280 l773 0 l0 280 l194 0 l0 -280 ZM1157 794 l0 244 l-773 0 l0 -244 l773 0 Z" /><glyph glyph-name="" unicode="&#x12e;" d="M415 -211 q7 0 11.5 -4 q4.5 -4 6.5 -9 l28 -66 q-30 -23 -76.5 -37.5 q-46.5 -14.5 -97.5 -14.5 q-88 0 -138.5 39.5 q-50.5 39.5 -50.5 105.5 q0 58 39.5 108.5 q39.5 50.5 99.5 88.5 l-53 0 l0 1433 l194 0 l0 -1433 l-27 0 q-20 -11 -41 -26.5 q-21 -15.5 -38 -35 q-17 -19.5 -28 -43 q-11 -23.5 -11 -49.5 q0 -38 24.5 -59.5 q24.5 -21.5 66.5 -21.5 q23 0 38 3.5 q15 3.5 25 8 q10 4.5 16.5 8.5 q6.5 4 11.5 4 Z" /><glyph glyph-name="" unicode="&#x141;" d="M405 805 l385 196 l0 -131 q0 -33 -28 -44 l-357 -186 l0 -477 l620 0 l0 -163 l-813 0 l0 553 l-187 -95 l0 134 q0 28 24 39 l163 86 l0 716 l193 0 l0 -628 Z" /><glyph glyph-name="" unicode="&#x14a;" d="M283 1433 q13 0 22 -1.5 q9 -1.5 16 -5 q7 -3.5 14 -10 q7 -6.5 15 -16.5 l829 -1079 q-2 26 -3.5 50.5 q-1.5 24.5 -1.5 46.5 l0 1015 l170 0 l0 -1426 q0 -82 -18.5 -149 q-18.5 -67 -58 -115 q-39.5 -48 -101 -74.5 q-61.5 -26.5 -147.5 -26.5 q-48 0 -87 8.5 q-39 8.5 -83 27.5 l19 78 q6 22 17 28.5 q11 6.5 24 6.5 q13 0 34 -7 q21 -7 59 -7 q85 0 128.5 51.5 q43.5 51.5 43.5 158.5 l0 53 l-825 1074 q2 -25 3 -49 q1 -24 1 -44 l0 -1021 l-170 0 l0 1433 l100 0 l0 0 Z" /><glyph glyph-name="" unicode="þ" d="M376 272 l0 -272 l-193 0 l0 1433 l193 0 l0 -264 l230 0 q136 0 236.5 -31.5 q100.5 -31.5 166.5 -89.5 q66 -58 98.5 -140 q32.5 -82 32.5 -183 q0 -100 -35 -183 q-35 -83 -102.5 -143 q-67.5 -60 -167 -93.5 q-99.5 -33.5 -229.5 -33.5 l-230 0 ZM376 426 l230 0 q83 0 146.5 22 q63.5 22 107 61.5 q43.5 39.5 65.5 94.5 q22 55 22 121 q0 137 -84.5 214 q-84.5 77 -256.5 77 l-230 0 l0 -590 Z" /><glyph glyph-name="" unicode="&#x15e;" d="M435 -253 q6 0 14 -3.5 q8 -3.5 19.5 -8 q11.5 -4.5 27 -8 q15.5 -3.5 36.5 -3.5 q42 0 63.5 17 q21.5 17 21.5 43 q0 38 -42 53.5 q-42 15.5 -119 25.5 l40 121 q-134 4 -243 54 q-109 50 -187 133 l56 92 q8 11 19.5 18.5 q11.5 7.5 25.5 7.5 q13 0 29.5 -10.5 q16.5 -10.5 37.5 -26.5 q21 -16 48 -35 q27 -19 61.5 -35 q34.5 -16 78.5 -26.5 q44 -10.5 99 -10.5 q69 0 123 19 q54 19 91.5 53.5 q37.5 34.5 57.5 82.5 q20 48 20 107 q0 65 -29.5 106.5 q-29.5 41.5 -77.5 69.5 q-48 28 -110 47.5 q-62 19.5 -126 40 q-64 20.5 -126 47.5 q-62 27 -110 70 q-48 43 -77.5 107.5 q-29.5 64.5 -29.5 159.5 q0 76 29.5 147 q29.5 71 86 126 q56.5 55 139 88 q82.5 33 189.5 33 q120 0 218.5 -38 q98.5 -38 173.5 -110 l-47 -92 q-9 -15 -19.5 -22.5 q-10.5 -7.5 -25.5 -7.5 q-17 0 -40 17 q-23 17 -57.5 37.5 q-34.5 20.5 -83 37.5 q-48.5 17 -117.5 17 q-65 0 -114.5 -17.5 q-49.5 -17.5 -83 -47.5 q-33.5 -30 -50.5 -70.5 q-17 -40.5 -17 -87.5 q0 -60 29.5 -99.5 q29.5 -39.5 78 -67.5 q48.5 -28 110 -48.5 q61.5 -20.5 126 -42.5 q64.5 -22 126 -49.5 q61.5 -27.5 110 -69.5 q48.5 -42 78 -103 q29.5 -61 29.5 -150 q0 -85 -26.5 -160.5 q-26.5 -75.5 -76.5 -134.5 q-50 -59 -123.5 -98 q-73.5 -39 -167.5 -52 l-19 -65 q93 -19 134.5 -54 q41.5 -35 41.5 -89 q0 -32 -16 -58 q-16 -26 -44.5 -44 q-28.5 -18 -68.5 -27.5 q-40 -9.5 -88 -9.5 q-41 0 -78 8.5 q-37 8.5 -68 22.5 l17 55 q6 18 23 18 Z" /><glyph glyph-name="" unicode="&#x166;" d="M1167 1433 l0 -163 l-464 0 l0 -419 l326 0 l0 -113 l-326 0 l0 -738 l-193 0 l0 738 l-328 0 l0 113 l328 0 l0 419 l-465 0 l0 163 l1122 0 Z" /><glyph glyph-name="" unicode="&#x172;" d="M903 -216 q7 0 11.5 -4 q4.5 -4 6.5 -9 l28 -66 q-30 -23 -76.5 -37.5 q-46.5 -14.5 -97.5 -14.5 q-88 0 -138.5 39.5 q-50.5 39.5 -50.5 105.5 q0 54 33.5 101 q33.5 47 87.5 85 q-126 5 -226.5 50.5 q-100.5 45.5 -170.5 123 q-70 77.5 -107.5 181 q-37.5 103.5 -37.5 223.5 l0 871 l193 0 l0 -870 q0 -90 25.5 -165 q25.5 -75 74 -129 q48.5 -54 119 -84.5 q70.5 -30.5 159.5 -30.5 q89 0 159 30 q70 30 118.5 84 q48.5 54 74 129 q25.5 75 25.5 165 l0 871 l193 0 l0 -871 q0 -113 -33 -210.5 q-33 -97.5 -94.5 -173 q-61.5 -75.5 -150 -124.5 q-88.5 -49 -199.5 -64 q-19 -11 -38.5 -26.5 q-19.5 -15.5 -35 -34.5 q-15.5 -19 -25 -41 q-9.5 -22 -9.5 -47 q0 -38 24.5 -59.5 q24.5 -21.5 66.5 -21.5 q23 0 38 3.5 q15 3.5 25 8 q10 4.5 16.5 8.5 q6.5 4 11.5 4 Z" /><glyph glyph-name="" unicode="&#x105;" d="M928 -211 q7 0 11.5 -4 q4.5 -4 6.5 -9 l28 -66 q-30 -23 -76.5 -37.5 q-46.5 -14.5 -97.5 -14.5 q-88 0 -138.5 39.5 q-50.5 39.5 -50.5 105.5 q0 29 11 57 q11 28 30.5 53.5 q19.5 25.5 46 48 q26.5 22.5 57.5 41.5 q-25 7 -33 39 l-20 95 q-40 -36 -78.5 -64.5 q-38.5 -28.5 -80 -48 q-41.5 -19.5 -89 -30 q-47.5 -10.5 -105.5 -10.5 q-59 0 -111 16.5 q-52 16.5 -90.5 49.5 q-38.5 33 -61 83.5 q-22.5 50.5 -22.5 119.5 q0 60 33 115.5 q33 55.5 107 98.5 q74 43 193 70.5 q119 27.5 292 31.5 l0 79 q0 118 -51 178.5 q-51 60.5 -149 60.5 q-66 0 -110.5 -16.5 q-44.5 -16.5 -77 -37 q-32.5 -20.5 -56 -37 q-23.5 -16.5 -46.5 -16.5 q-18 0 -31 9.5 q-13 9.5 -22 23.5 l-32 57 q84 81 181 121 q97 40 215 40 q85 0 151 -28 q66 -28 111 -78 q45 -50 68 -121 q23 -71 23 -156 l0 -648 q-20 -11 -41 -26.5 q-21 -15.5 -38 -35 q-17 -19.5 -28 -43 q-11 -23.5 -11 -49.5 q0 -38 24.5 -59.5 q24.5 -21.5 66.5 -21.5 q23 0 38 3.5 q15 3.5 25 8 q10 4.5 16.5 8.5 q6.5 4 11.5 4 ZM403 109 q47 0 86 9.5 q39 9.5 73.5 27 q34.5 17.5 66 43 q31.5 25.5 61.5 57.5 l0 210 q-123 -4 -209.5 -19.5 q-86.5 -15.5 -141 -40.5 q-54.5 -25 -79 -59 q-24.5 -34 -24.5 -76 q0 -40 13 -69 q13 -29 35.5 -47.5 q22.5 -18.5 53 -27 q30.5 -8.5 65.5 -8.5 Z" /><glyph glyph-name="" unicode="&#x111;" d="M565 1256 l237 0 l0 217 l178 0 l0 -217 l148 0 l0 -113 l-148 0 l0 -1143 l-106 0 q-38 0 -48 37 l-16 123 q-64 -79 -148 -126.5 q-84 -47.5 -192 -47.5 q-87 0 -158 32 q-71 32 -121 95 q-50 63 -77 158 q-27 95 -27 221 q0 112 30 207 q30 95 86 164 q56 69 137.5 107.5 q81.5 38.5 183.5 38.5 q93 0 159.5 -31.5 q66.5 -31.5 118.5 -88.5 l0 254 l-237 0 l0 113 ZM528 130 q88 0 153.5 40 q65.5 40 120.5 113 l0 467 q-50 66 -108 93.5 q-58 27.5 -130 27.5 q-141 0 -217 -96 q-76 -96 -76 -283 q0 -99 17 -168 q17 -69 50 -112 q33 -43 81 -62.5 q48 -19.5 109 -19.5 Z" /><glyph glyph-name="" unicode="ð" d="M423 1065 q-12 18 -8 35 q4 17 22 28 l103 72 q-45 20 -95.5 36.5 q-50.5 16.5 -107.5 30.5 q-23 7 -37 28 q-14 21 -1 57 l20 62 q96 -16 186.5 -46 q90.5 -30 171.5 -78 l166 122 l35 -57 q11 -17 7 -33.5 q-4 -16.5 -21 -27.5 l-97 -67 q60 -49 109.5 -111 q49.5 -62 84.5 -139.5 q35 -77.5 54.5 -170 q19.5 -92.5 19.5 -202.5 q0 -143 -31 -257 q-31 -114 -92.5 -194 q-61.5 -80 -153 -123 q-91.5 -43 -211.5 -43 q-98 0 -182.5 33 q-84.5 33 -147.5 94.5 q-63 61.5 -99 150.5 q-36 89 -36 201 q0 94 31 177.5 q31 83.5 89 146.5 q58 63 140.5 100 q82.5 37 186.5 37 q101 0 189.5 -43 q88.5 -43 152.5 -130 q-20 136 -78.5 231 q-58.5 95 -152.5 159 l-184 -135 l-33 56 ZM551 125 q71 0 128.5 27 q57.5 27 98 81.5 q40.5 54.5 63.5 137 q23 82.5 26 193.5 q-16 43 -42 83.5 q-26 40.5 -63 72 q-37 31.5 -86.5 50 q-49.5 18.5 -111.5 18.5 q-75 0 -132 -25 q-57 -25 -95 -68.5 q-38 -43.5 -57.5 -103 q-19.5 -59.5 -19.5 -127.5 q0 -81 23 -144.5 q23 -63.5 63 -106.5 q40 -43 92.5 -65.5 q52.5 -22.5 112.5 -22.5 Z" /><glyph glyph-name="" unicode="&#x119;" d="M750 -211 q7 0 11.5 -4 q4.5 -4 6.5 -9 l28 -66 q-30 -23 -76.5 -37.5 q-46.5 -14.5 -97.5 -14.5 q-88 0 -138.5 39.5 q-50.5 39.5 -50.5 105.5 q0 53 33 100 q33 47 85 84 q-102 2 -188 38.5 q-86 36.5 -148 105 q-62 68.5 -97 168 q-35 99.5 -35 228.5 q0 106 32.5 198 q32.5 92 93.5 159.5 q61 67.5 149 106 q88 38.5 198 38.5 q91 0 168.5 -30.5 q77.5 -30.5 134 -88 q56.5 -57.5 88.5 -142 q32 -84.5 32 -192.5 q0 -42 -9 -56 q-9 -14 -34 -14 l-677 0 q2 -96 26 -167 q24 -71 66 -118.5 q42 -47.5 100 -71 q58 -23.5 130 -23.5 q67 0 115.5 15.5 q48.5 15.5 83.5 33.5 q35 18 58.5 33.5 q23.5 15.5 40.5 15.5 q22 0 34 -17 l50 -65 q-51 -60 -126 -96 q-75 -36 -159 -50 q-20 -11 -39.5 -26.5 q-19.5 -15.5 -35 -34.5 q-15.5 -19 -25.5 -41.5 q-10 -22.5 -10 -47.5 q0 -38 24.5 -59.5 q24.5 -21.5 66.5 -21.5 q23 0 38 3.5 q15 3.5 25 8 q10 4.5 16.5 8.5 q6.5 4 11.5 4 ZM560 898 q-129 0 -203 -74.5 q-74 -74.5 -92 -206.5 l554 0 q0 62 -17.5 113.5 q-17.5 51.5 -51 89 q-33.5 37.5 -81.5 58 q-48 20.5 -109 20.5 Z" /><glyph glyph-name="" unicode="&#xfb00;" d="M207 0 l0 861 l-112 13 q-21 5 -34.5 15.5 q-13.5 10.5 -13.5 30.5 l0 73 l160 0 l0 83 q0 87 24.5 154.5 q24.5 67.5 70 114 q45.5 46.5 109.5 70.5 q64 24 144 24 q68 0 125 -20 l-4 -90 q-2 -24 -26.5 -26 q-24.5 -2 -65.5 -2 q-46 0 -83.5 -11.5 q-37.5 -11.5 -64.5 -38.5 q-27 -27 -41.5 -71.5 q-14.5 -44.5 -14.5 -109.5 l0 -77 l457 0 l0 109 q0 87 24.5 154.5 q24.5 67.5 70 114 q45.5 46.5 109.5 70.5 q64 24 144 24 q67 0 125 -20 l-4 -89 q-2 -24 -26.5 -26 q-24.5 -2 -65.5 -2 q-46 0 -83.5 -12 q-37.5 -12 -64.5 -39 q-27 -27 -41.5 -71 q-14.5 -44 -14.5 -109 l0 -104 l292 0 l0 -129 l-286 0 l0 -864 l-179 0 l0 864 l-451 0 l0 -864 l-179 0 Z" /><glyph glyph-name="" unicode="&#xfb03;" d="M209 0 l0 861 l-112 13 q-22 5 -35 15.5 q-13 10.5 -13 30.5 l0 73 l160 0 l0 83 q0 87 24.5 154.5 q24.5 67.5 69.5 114 q45 46.5 109 70.5 q64 24 144 24 q68 0 126 -20 l-5 -90 q-2 -24 -26 -26 q-24 -2 -66 -2 q-46 0 -83.5 -11.5 q-37.5 -11.5 -64 -38.5 q-26.5 -27 -41 -71.5 q-14.5 -44.5 -14.5 -109.5 l0 -77 l457 0 l0 56 q0 93 29 170.5 q29 77.5 87 133.5 q58 56 144.5 87 q86.5 31 200.5 31 q38 0 78 -5 q40 -5 69 -15 l-7 -93 q-1 -10 -7.5 -14 q-6.5 -4 -17.5 -5 q-11 -1 -27.5 -0.5 q-16.5 0.5 -37.5 0.5 q-178 0 -258 -73.5 q-80 -73.5 -80 -221.5 l0 -51 l612 0 l0 -993 l-179 0 l0 864 l-428 0 l0 -864 l-178 0 l0 864 l-452 0 l0 -864 l-178 0 Z" /><glyph glyph-name="" unicode="&#xfb04;" d="M207 0 l0 861 l-112 13 q-21 5 -34.5 15.5 q-13.5 10.5 -13.5 30.5 l0 73 l160 0 l0 83 q0 87 24.5 154.5 q24.5 67.5 70 114 q45.5 46.5 109.5 70.5 q64 24 144 24 q68 0 125 -20 l-4 -90 q-2 -24 -26.5 -26 q-24.5 -2 -65.5 -2 q-46 0 -83.5 -11.5 q-37.5 -11.5 -64.5 -38.5 q-27 -27 -41.5 -71.5 q-14.5 -44.5 -14.5 -109.5 l0 -77 l457 0 l0 54 q0 84 26 159.5 q26 75.5 78 131.5 q52 56 130 89 q78 33 182 33 q76 0 147.5 -6 q71.5 -6 138.5 -7 l122 0 l0 -1447 l-178 0 l0 1322 q-54 2 -108.5 5 q-54.5 3 -94.5 3 q-130 0 -200 -74.5 q-70 -74.5 -70 -208.5 l0 -54 l292 0 l0 -129 l-286 0 l0 -864 l-179 0 l0 864 l-451 0 l0 -864 l-179 0 Z" /><glyph glyph-name="" unicode="&#x127;" d="M-13 1270 l154 0 l0 203 l178 0 l0 -203 l293 0 l0 -113 l-293 0 l0 -302 q65 69 144 110.5 q79 41.5 182 41.5 q83 0 146.5 -27.5 q63.5 -27.5 106 -78 q42.5 -50.5 64.5 -121 q22 -70.5 22 -156.5 l0 -624 l-178 0 l0 624 q0 114 -52.5 177.5 q-52.5 63.5 -160.5 63.5 q-79 0 -147.5 -37.5 q-68.5 -37.5 -126.5 -103.5 l0 -724 l-178 0 l0 1157 l-154 0 l0 113 Z" /><glyph glyph-name="" unicode="&#x237;" d="M330 1013 l0 -1088 q0 -61 -16.5 -113.5 q-16.5 -52.5 -51 -91.5 q-34.5 -39 -89 -61.5 q-54.5 -22.5 -130.5 -22.5 q-33 0 -59.5 5 q-26.5 5 -53.5 15 l7 96 q2 9 6 13.5 q4 4.5 12 5.5 q8 1 20.5 0.5 q12.5 -0.5 31.5 -0.5 q78 0 111 36.5 q33 36.5 33 117.5 l0 1088 l179 0 Z" /><glyph glyph-name="" unicode="&#x138;" d="M320 1013 l0 -407 l46 0 q20 0 33.5 5.5 q13.5 5.5 28.5 22.5 l320 343 q14 17 29.5 26.5 q15.5 9.5 41.5 9.5 l161 0 l-373 -397 q-27 -34 -58 -53 q18 -12 32.5 -27.5 q14.5 -15.5 27.5 -35.5 l396 -500 l-159 0 q-23 0 -39.5 7.5 q-16.5 7.5 -28.5 27.5 l-333 415 q-15 21 -29.5 27.5 q-14.5 6.5 -44.5 6.5 l-51 0 l0 -484 l-179 0 l0 1013 l179 0 Z" /><glyph glyph-name="" unicode="&#x142;" d="M402 1473 l0 -545 l188 80 l0 -101 q0 -33 -27 -44 l-161 -71 l0 -792 l-178 0 l0 727 l-181 -79 l0 105 q0 27 25 40 l156 70 l0 610 l178 0 Z" /><glyph glyph-name="" unicode="&#x14b;" d="M141 0 l0 1013 l107 0 q38 0 47 -37 l14 -110 q66 73 148 118 q82 45 189 45 q83 0 146.5 -27.5 q63.5 -27.5 106 -78 q42.5 -50.5 64.5 -121.5 q22 -71 22 -157 l0 -645 q0 -82 -20 -149 q-20 -67 -61 -115 q-41 -48 -104 -74.5 q-63 -26.5 -149 -26.5 q-48 0 -86.5 8.5 q-38.5 8.5 -82.5 27.5 l19 77 q6 23 17 29.5 q11 6.5 24 6.5 q12 0 33.5 -7.5 q21.5 -7.5 59.5 -7.5 q84 0 127.5 52 q43.5 52 43.5 159 l0 665 q0 115 -52.5 178.5 q-52.5 63.5 -159.5 63.5 q-80 0 -148.5 -38 q-68.5 -38 -125.5 -103 l0 -746 l-179 0 Z" /><glyph glyph-name="" unicode="þ" d="M141 -343 l0 1816 l179 0 l0 -607 q64 75 145 119 q81 44 186 44 q88 0 159 -33 q71 -33 121 -98.5 q50 -65.5 77 -162 q27 -96.5 27 -222.5 q0 -112 -30 -208.5 q-30 -96.5 -86.5 -167 q-56.5 -70.5 -138 -111 q-81.5 -40.5 -183.5 -40.5 q-94 0 -160 34.5 q-66 34.5 -117 97.5 l0 -461 l-179 0 ZM593 887 q-87 0 -152.5 -40 q-65.5 -40 -120.5 -113 l0 -490 q48 -66 106.5 -93 q58.5 -27 130.5 -27 q142 0 218 101 q76 101 76 288 q0 99 -17.5 170 q-17.5 71 -50.5 116.5 q-33 45.5 -81 66.5 q-48 21 -109 21 Z" /><glyph glyph-name="" unicode="&#x15f;" d="M295 -253 q6 0 14 -3.5 q8 -3.5 19.5 -8 q11.5 -4.5 27 -8 q15.5 -3.5 36.5 -3.5 q42 0 63.5 17 q21.5 17 21.5 43 q0 38 -42 53.5 q-42 15.5 -119 25.5 l41 123 q-90 8 -163.5 40.5 q-73.5 32.5 -126.5 80.5 l42 68 q8 13 19 20 q11 7 28 7 q18 0 38 -14 q20 -14 48.5 -31 q28.5 -17 69.5 -31 q41 -14 102 -14 q52 0 91 13.5 q39 13.5 65 36.5 q26 23 38.5 53 q12.5 30 12.5 64 q0 42 -22.5 69.5 q-22.5 27.5 -59.5 47 q-37 19.5 -84.5 34 q-47.5 14.5 -97 30.5 q-49.5 16 -97 36.5 q-47.5 20.5 -84.5 51.5 q-37 31 -59.5 76.5 q-22.5 45.5 -22.5 110.5 q0 58 24 111.5 q24 53.5 70 94 q46 40.5 113 64.5 q67 24 153 24 q100 0 179.5 -31.5 q79.5 -31.5 137.5 -86.5 l-40 -65 q-12 -22 -37 -22 q-15 0 -34 11 q-19 11 -46.5 24.5 q-27.5 13.5 -65.5 25 q-38 11.5 -90 11.5 q-45 0 -81 -11.5 q-36 -11.5 -61.5 -31.5 q-25.5 -20 -39 -46.5 q-13.5 -26.5 -13.5 -57.5 q0 -39 22.5 -65 q22.5 -26 59.5 -45 q37 -19 84 -33.5 q47 -14.5 96.5 -31 q49.5 -16.5 96.5 -36.5 q47 -20 84 -50 q37 -30 59.5 -73.5 q22.5 -43.5 22.5 -104.5 q0 -65 -21.5 -120.5 q-21.5 -55.5 -63 -98.5 q-41.5 -43 -103 -70 q-61.5 -27 -140.5 -34 l-18 -62 q93 -19 134.5 -54 q41.5 -35 41.5 -89 q0 -32 -16 -58 q-16 -26 -44.5 -44 q-28.5 -18 -68.5 -27.5 q-40 -9.5 -88 -9.5 q-41 0 -78 8.5 q-37 8.5 -68 22.5 l17 55 q6 18 23 18 Z" /><glyph glyph-name="" unicode="&#x17f;" d="M209 0 l0 861 l-112 13 q-22 5 -35 15.5 q-13 10.5 -13 30.5 l0 73 l160 0 l0 98 q0 87 24.5 154.5 q24.5 67.5 69.5 114 q45 46.5 109.5 70.5 q64.5 24 144.5 24 q68 0 126 -20 l-7 -92 q-1 -10 -8 -14.5 q-7 -4.5 -19 -5.5 q-12 -1 -28 -0.5 q-16 0.5 -35 0.5 q-46 0 -83 -12.5 q-37 -12.5 -62.5 -40.5 q-25.5 -28 -39.5 -73 q-14 -45 -14 -110 l0 -1086 l-178 0 Z" /><glyph glyph-name="" unicode="&#x167;" d="M64 692 l142 0 l0 172 l-122 0 q-16 0 -27 9.5 q-11 9.5 -11 29.5 l0 71 l166 21 l41 313 q3 15 13.5 24.5 q10.5 9.5 27.5 9.5 l90 0 l0 -349 l293 0 l0 -129 l-293 0 l0 -172 l295 0 l0 -113 l-295 0 l0 -323 q0 -64 31 -95 q31 -31 80 -31 q28 0 48.5 7.5 q20.5 7.5 35.5 16.5 q15 9 25.5 16.5 q10.5 7.5 18.5 7.5 q14 0 25 -17 l52 -85 q-46 -43 -111 -67.5 q-65 -24.5 -134 -24.5 q-120 0 -184.5 67 q-64.5 67 -64.5 193 l0 335 l-142 0 l0 113 Z" /><glyph glyph-name="" unicode="&#x173;" d="M1039 -211 q7 0 11.5 -4 q4.5 -4 6.5 -9 l28 -66 q-30 -23 -76.5 -37.5 q-46.5 -14.5 -97.5 -14.5 q-88 0 -138.5 39.5 q-50.5 39.5 -50.5 105.5 q0 58 39.5 108.5 q39.5 50.5 99.5 88.5 q-32 3 -41 37 l-14 109 q-66 -73 -148 -117.5 q-82 -44.5 -188 -44.5 q-83 0 -146.5 27.5 q-63.5 27.5 -106.5 77.5 q-43 50 -64.5 121 q-21.5 71 -21.5 157 l0 646 l178 0 l0 -646 q0 -115 52.5 -178 q52.5 -63 160.5 -63 q78 0 147 37 q69 37 127 103 l0 747 l178 0 l0 -1013 l1 0 q-20 -11 -41 -26.5 q-21 -15.5 -38 -35 q-17 -19.5 -28 -43 q-11 -23.5 -11 -49.5 q0 -38 24.5 -59.5 q24.5 -21.5 66.5 -21.5 q23 0 38 3.5 q15 3.5 25 8 q10 4.5 16.5 8.5 q6.5 4 11.5 4 Z" /><glyph glyph-name="" unicode="&#x207f;" d="M83 915 l0 518 l66 0 q14 0 21.5 -6 q7.5 -6 12.5 -21 l8 -46 q34 35 73.5 58 q39.5 23 95.5 23 q42 0 74.5 -14.5 q32.5 -14.5 54.5 -41 q22 -26.5 33.5 -62.5 q11.5 -36 11.5 -79 l0 -329 l-126 0 l0 329 q0 47 -21.5 72 q-21.5 25 -65.5 25 q-32 0 -59.5 -14 q-27.5 -14 -52.5 -39 l0 -373 l-126 0 Z" /><glyph glyph-name="" unicode="&#x315;" d="M478 1475 q22 0 27.5 -10.5 q5.5 -10.5 5.5 -22.5 q0 -10 -3.5 -26.5 q-3.5 -16.5 -12.5 -46 q-9 -29.5 -25 -74.5 q-16 -45 -41 -111 q-10 -22 -24.5 -29 q-14.5 -7 -39.5 -7 l-62 0 l57 327 l118 0 Z" /><glyph glyph-name="" unicode="&#x393;" d="M1066 1280 l-689 0 l0 -1280 l-194 0 l0 1433 l883 0 l0 -153 Z" /><glyph glyph-name="" unicode="&#x394;" d="M27 55 q0 54 23 115 l532 1263 l196 0 l527 -1259 q11 -29 17.5 -58 q6.5 -29 6.5 -59 l0 -57 l-1302 0 l0 55 ZM228 156 l882 0 l-392 959 q-23 59 -46 147 q-11 -45 -22.5 -82 q-11.5 -37 -22.5 -66 l-399 -958 Z" /><glyph glyph-name="" unicode="&#x398;" d="M519 803 l562 0 l0 -158 l-562 0 l0 158 ZM1507 716 q0 -161 -51 -295.5 q-51 -134.5 -144 -231.5 q-93 -97 -223.5 -150.5 q-130.5 -53.5 -288.5 -53.5 q-158 0 -288 53.5 q-130 53.5 -223 150.5 q-93 97 -144 231.5 q-51 134.5 -51 295.5 q0 161 51 295.5 q51 134.5 144 232 q93 97.5 223 151.5 q130 54 288 54 q158 0 288.5 -54 q130.5 -54 223.5 -151.5 q93 -97.5 144 -232 q51 -134.5 51 -295.5 ZM1308 716 q0 132 -36 237 q-36 105 -102 177.5 q-66 72.5 -160 111.5 q-94 39 -210 39 q-115 0 -209 -39 q-94 -39 -160.5 -111.5 q-66.5 -72.5 -102.5 -177.5 q-36 -105 -36 -237 q0 -132 36 -236.5 q36 -104.5 102.5 -177 q66.5 -72.5 160.5 -111 q94 -38.5 209 -38.5 q116 0 210 38.5 q94 38.5 160 111 q66 72.5 102 177 q36 104.5 36 236.5 Z" /><glyph glyph-name="" unicode="&#x39b;" d="M1347 0 l-166 0 q-26 0 -42 13 q-16 13 -24 33 l-405 1011 q-13 34 -25.5 73.5 q-12.5 39.5 -22.5 83.5 q-9 -44 -20 -84 q-11 -40 -24 -73 l-404 -1011 q-6 -18 -23 -32 q-17 -14 -42 -14 l-145 0 l584 1433 l175 0 l584 -1433 Z" /><glyph glyph-name="" unicode="&#x39e;" d="M1158 1433 l0 -164 l-1073 0 l0 164 l1073 0 ZM1158 163 l0 -163 l-1073 0 l0 163 l1073 0 ZM333 809 l574 0 l0 -169 l-574 0 l0 169 Z" /><glyph glyph-name="" unicode="&#x3a0;" d="M1344 0 l-194 0 l0 1280 l-773 0 l0 -1280 l-194 0 l0 1433 l1161 0 l0 -1433 Z" /><glyph glyph-name="" unicode="&#x3a3;" d="M743 733 q0 -21 -9 -44 q-9 -23 -41 -59 l-325 -401 q-29 -34 -49.5 -53.5 q-20.5 -19.5 -41.5 -32.5 q37 5 69 7 q32 2 61 2 l732 0 l0 -152 l-1073 0 l0 73 q0 22 10.5 43.5 q10.5 21.5 25.5 37.5 l470 561 l-482 578 q-10 11 -17 26 q-7 15 -7 30 l0 84 l1073 0 l0 -153 l-710 0 q-46 0 -83 3 q-37 3 -74 10 q41 -22 72.5 -47 q31.5 -25 59.5 -58 l289 -362 q31 -36 40 -56.5 q9 -20.5 10 -36.5 Z" /><glyph glyph-name="" unicode="&#x3a6;" d="M925 1362 q156 -2 280 -53 q124 -51 210.5 -138.5 q86.5 -87.5 133 -203.5 q46.5 -116 46.5 -247 q0 -131 -46.5 -247.5 q-46.5 -116.5 -133 -203.5 q-86.5 -87 -210.5 -138 q-124 -51 -280 -52 l0 -194 l-184 0 l0 194 q-156 1 -280 52 q-124 51 -211 138 q-87 87 -133 203.5 q-46 116.5 -46 247.5 q0 131 47 247 q47 116 134 203.5 q87 87.5 211 138.5 q124 51 278 53 l0 185 l184 0 l0 -185 ZM258 720 q0 -101 34 -189.5 q34 -88.5 97 -155 q63 -66.5 152 -105.5 q89 -39 200 -40 l0 980 q-111 -2 -200 -41 q-89 -39 -152 -105.5 q-63 -66.5 -97 -155 q-34 -88.5 -34 -188.5 ZM1407 720 q0 100 -34 188.5 q-34 88.5 -97 155 q-63 66.5 -152 105.5 q-89 39 -199 41 l0 -980 q110 1 199 40.5 q89 39.5 152 105.5 q63 66 97 154.5 q34 88.5 34 189.5 Z" /><glyph glyph-name="" unicode="&#x3a8;" d="M228 1433 q32 0 49 -19.5 q17 -19.5 17 -48.5 l0 -444 q0 -96 24 -171 q24 -75 75.5 -127.5 q51.5 -52.5 131.5 -81.5 q80 -29 192 -34 l0 926 l195 0 l0 -926 q112 5 192.5 34 q80.5 29 132 81.5 q51.5 52.5 76 127.5 q24.5 75 24.5 171 l0 444 q0 29 17 48.5 q17 19.5 48 19.5 l129 0 l0 -512 q0 -127 -40 -230 q-40 -103 -118 -177 q-78 -74 -194 -116 q-116 -42 -267 -48 l0 -350 l-195 0 l0 350 q-152 6 -267.5 48 q-115.5 42 -193.5 116 q-78 74 -117.5 177 q-39.5 103 -39.5 230 l0 512 l129 0 Z" /><glyph glyph-name="" unicode="&#x3a9;" d="M925 0 l0 224 q81 15 150.5 63.5 q69.5 48.5 121 122 q51.5 73.5 80.5 167.5 q29 94 29 200 q0 126 -40.5 220 q-40.5 94 -109 157 q-68.5 63 -158.5 94.5 q-90 31.5 -190 31.5 q-100 0 -190 -31.5 q-90 -31.5 -158.5 -94.5 q-68.5 -63 -109 -157 q-40.5 -94 -40.5 -220 q0 -106 29 -200 q29 -94 80.5 -167.5 q51.5 -73.5 121 -122 q69.5 -48.5 150.5 -63.5 l0 -224 l-520 0 q-30 0 -48 17.5 q-18 17.5 -18 45.5 l0 100 l286 0 q36 0 74.5 -4 q38.5 -4 76.5 -9 q-92 31 -170 90.5 q-78 59.5 -134.5 141 q-56.5 81.5 -88.5 182.5 q-32 101 -32 215 q0 150 54.5 273.5 q54.5 123.5 148 211.5 q93.5 88 219.5 136 q126 48 269 48 q143 0 269 -48 q126 -48 219.5 -136 q93.5 -88 148 -211.5 q54.5 -123.5 54.5 -273.5 q0 -114 -32 -215 q-32 -101 -89 -182.5 q-57 -81.5 -135 -141 q-78 -59.5 -169 -90.5 q38 5 76 9 q38 4 75 4 l286 0 l0 -100 q0 -28 -18 -45.5 q-18 -17.5 -48 -17.5 l-520 0 Z" /><glyph glyph-name="" unicode="&#x3b1;" d="M1051 -8 q-39 0 -75.5 11 q-36.5 11 -67.5 33.5 q-31 22.5 -54 57.5 q-23 35 -35 83 q-32 -51 -71 -87 q-39 -36 -82.5 -59 q-43.5 -23 -89.5 -34 q-46 -11 -92 -11 q-84 0 -157 34.5 q-73 34.5 -127 99.5 q-54 65 -85 158 q-31 93 -31 211 q0 124 34.5 224.5 q34.5 100.5 95 171 q60.5 70.5 142 108.5 q81.5 38 176.5 38 q54 0 101.5 -12.5 q47.5 -12.5 87 -34 q39.5 -21.5 72 -51 q32.5 -29.5 56.5 -63.5 l19 106 q12 37 48 37 l106 0 l-55 -541 q-2 -49 -6.5 -96.5 q-4.5 -47.5 -4.5 -87.5 q0 -44 12 -74.5 q12 -30.5 33.5 -50.5 q21.5 -20 50 -29 q28.5 -9 61.5 -9 l59 0 l0 -72 q0 -23 -32 -42 q-32 -19 -89 -19 ZM526 130 q50 0 95.5 19.5 q45.5 19.5 81.5 59 q36 39.5 60.5 101 q24.5 61.5 32.5 145.5 l26 254 q-14 36 -37.5 69 q-23.5 33 -56 58.5 q-32.5 25.5 -74 40.5 q-41.5 15 -91.5 15 q-59 0 -112.5 -23.5 q-53.5 -23.5 -94 -72.5 q-40.5 -49 -64.5 -124 q-24 -75 -24 -178 q0 -96 21 -164.5 q21 -68.5 56 -113 q35 -44.5 82 -65.5 q47 -21 99 -21 Z" /><glyph glyph-name="" unicode="&#x3b2;" d="M595 -14 q-88 0 -156.5 28 q-68.5 28 -119.5 87 l0 -468 l-179 0 l0 1279 q0 258 103.5 396.5 q103.5 138.5 315.5 138.5 q99 0 171.5 -29 q72.5 -29 120.5 -77 q48 -48 71 -111 q23 -63 23 -131 q0 -115 -58.5 -194 q-58.5 -79 -161.5 -113 q74 -18 132 -52 q58 -34 98 -82 q40 -48 61 -109 q21 -61 21 -132 q0 -87 -31.5 -165.5 q-31.5 -78.5 -89.5 -137.5 q-58 -59 -139.5 -93.5 q-81.5 -34.5 -181.5 -34.5 ZM515 857 q57 0 105 12.5 q48 12.5 83 39.5 q35 27 54.5 70 q19.5 43 19.5 105 q0 113 -59 172.5 q-59 59.5 -162 59.5 q-61 0 -105.5 -22.5 q-44.5 -22.5 -74 -71.5 q-29.5 -49 -43.5 -127 q-14 -78 -14 -189 l0 -658 q43 -63 97.5 -93 q54.5 -30 135.5 -30 q75 0 132 24 q57 24 95.5 66 q38.5 42 58 98 q19.5 56 19.5 121 q0 77 -25.5 130.5 q-25.5 53.5 -69 87.5 q-43.5 34 -102 49 q-58.5 15 -124.5 15 l-61 0 l0 141 l40 0 Z" /><glyph glyph-name="" unicode="&#x3b3;" d="M464 -342 l0 428 q-36 169 -76 315.5 q-40 146.5 -86.5 254 q-46.5 107.5 -100.5 169 q-54 61.5 -120 61.5 l-38 0 l0 66 q0 14 4 26 q4 12 14 21 q10 9 28 14.5 q18 5.5 47 5.5 q91 0 161 -51.5 q70 -51.5 123.5 -151.5 q53.5 -100 93 -247 q39.5 -147 69.5 -337 q49 77 90.5 163.5 q41.5 86.5 74.5 178.5 q33 92 59 187.5 q26 95.5 45 190.5 q5 35 20.5 48 q15.5 13 34.5 13 l150 0 q-29 -128 -72 -251 q-43 -123 -96.5 -240.5 q-53.5 -117.5 -116 -227.5 q-62.5 -110 -130.5 -211 l0 -425 l-178 0 Z" /><glyph glyph-name="" unicode="&#x3b4;" d="M889 1297 q-3 -24 -14.5 -32 q-11.5 -8 -34.5 -8 q-13 0 -44 7 q-31 7 -72 15 q-41 8 -86.5 15 q-45.5 7 -87.5 7 q-90 0 -127 -27 q-37 -27 -37 -66 q0 -36 27.5 -66.5 q27.5 -30.5 72 -60 q44.5 -29.5 101.5 -61.5 q57 -32 117 -69.5 q60 -37.5 117 -84.5 q57 -47 101.5 -106.5 q44.5 -59.5 72 -135 q27.5 -75.5 27.5 -171.5 q0 -104 -33 -189.5 q-33 -85.5 -94 -147 q-61 -61.5 -148 -95.5 q-87 -34 -194 -34 q-113 0 -201 36.5 q-88 36.5 -148.5 100 q-60.5 63.5 -92 149.5 q-31.5 86 -31.5 186 q0 169 91 287 q91 118 273 181 q-46 27 -87 55.5 q-41 28.5 -72 62 q-31 33.5 -49 73 q-18 39.5 -18 89.5 q0 50 19.5 93 q19.5 43 61 75 q41.5 32 106.5 50 q65 18 156 18 q34 0 77.5 -2.5 q43.5 -2.5 89 -7.5 q45.5 -5 91 -12 q45.5 -7 84.5 -16 l-14 -108 ZM844 446 q0 81 -24 143.5 q-24 62.5 -63.5 111.5 q-39.5 49 -91 87.5 q-51.5 38.5 -106.5 71.5 q-59 -21 -112 -54 q-53 -33 -94 -81 q-41 -48 -65 -112.5 q-24 -64.5 -24 -148.5 q0 -69 17.5 -130.5 q17.5 -61.5 53.5 -108 q36 -46.5 90.5 -74 q54.5 -27.5 127.5 -27.5 q64 0 118 22 q54 22 92 64 q38 42 59.5 101.5 q21.5 59.5 21.5 134.5 Z" /><glyph glyph-name="" unicode="&#x3b5;" d="M790 840 q-11 -16 -19.5 -21 q-8.5 -5 -21.5 -5 q-13 0 -31 12 q-18 12 -46.5 26 q-28.5 14 -70 26 q-41.5 12 -100.5 12 q-56 0 -97 -11.5 q-41 -11.5 -68.5 -32 q-27.5 -20.5 -41 -47.5 q-13.5 -27 -13.5 -57 q0 -33 16 -61 q16 -28 47 -48.5 q31 -20.5 75 -32 q44 -11.5 100 -11.5 l164 0 l0 -118 l-164 0 q-128 0 -190.5 -45.5 q-62.5 -45.5 -62.5 -120.5 q0 -39 16 -72 q16 -33 46.5 -57.5 q30.5 -24.5 73.5 -38 q43 -13.5 97 -13.5 q66 0 110 15.5 q44 15.5 73.5 34.5 q29.5 19 49 34.5 q19.5 15.5 37.5 15.5 q22 0 34 -17 l50 -65 q-33 -41 -75 -70 q-42 -29 -89.5 -48 q-47.5 -19 -98.5 -28 q-51 -9 -101 -9 q-83 0 -156 21 q-73 21 -128.5 60.5 q-55.5 39.5 -87.5 95.5 q-32 56 -32 126 q0 87 52 148.5 q52 61.5 142 93.5 q-47 18 -79.5 43.5 q-32.5 25.5 -52.5 55.5 q-20 30 -29.5 62.5 q-9.5 32.5 -9.5 64.5 q0 53 24.5 102 q24.5 49 73.5 86.5 q49 37.5 122 60 q73 22.5 171 22.5 q112 0 193.5 -33 q81.5 -33 137.5 -87 l-40 -69 Z" /><glyph glyph-name="" unicode="&#x3b6;" d="M805 1357 q2 -9 -0.5 -20.5 q-2.5 -11.5 -14 -28 q-11.5 -16.5 -33 -40 q-21.5 -23.5 -57.5 -58.5 q-46 -44 -97.5 -94 q-51.5 -50 -101 -105.5 q-49.5 -55.5 -94.5 -117 q-45 -61.5 -79 -127 q-34 -65.5 -54 -136 q-20 -70.5 -20 -144.5 q0 -68 18 -115.5 q18 -47.5 52.5 -82 q34.5 -34.5 85 -58 q50.5 -23.5 115.5 -43.5 q94 -28 151.5 -58.5 q57.5 -30.5 89 -63.5 q31.5 -33 42.5 -68.5 q11 -35.5 11 -74.5 q0 -67 -22.5 -129 q-22.5 -62 -60.5 -124 l-138 55 q19 32 37 74.5 q18 42.5 18 86.5 q0 19 -7 39 q-7 20 -29.5 39.5 q-22.5 19.5 -65 39 q-42.5 19.5 -112.5 39.5 q-86 25 -152 59 q-66 34 -112 82 q-46 48 -69.5 113 q-23.5 65 -23.5 153 q0 116 39.5 223.5 q39.5 107.5 110 211.5 q70.5 104 167 207.5 q96.5 103.5 209.5 211.5 q-66 -9 -138.5 -13 q-72.5 -4 -148.5 -4 l-112 0 q-40 0 -56.5 19.5 q-16.5 19.5 -16.5 39.5 l0 88 l653 0 l16 -76 Z" /><glyph glyph-name="" unicode="&#x3b7;" d="M1036 -343 l-178 0 l0 988 q0 115 -52.5 178.5 q-52.5 63.5 -160.5 63.5 q-79 0 -147.5 -38 q-68.5 -38 -126.5 -103 l0 -746 l-178 0 l0 738 q0 78 -33 114.5 q-33 36.5 -99 36.5 l-43 0 l0 72 q0 23 21.5 42 q21.5 19 74.5 19 q82 0 143 -39 q61 -39 84 -122 q69 75 158 121.5 q89 46.5 198 46.5 q84 0 147 -27.5 q63 -27.5 106 -78 q43 -50.5 64.5 -121.5 q21.5 -71 21.5 -157 l0 -988 Z" /><glyph glyph-name="" unicode="&#x3b8;" d="M598 1449 q111 0 200.5 -47.5 q89.5 -47.5 152.5 -139.5 q63 -92 96.5 -229 q33.5 -137 33.5 -315 q0 -180 -33.5 -316.5 q-33.5 -136.5 -96.5 -229 q-63 -92.5 -152.5 -139.5 q-89.5 -47 -200.5 -47 q-112 0 -201.5 47 q-89.5 47 -152.5 139.5 q-63 92.5 -97 229 q-34 136.5 -34 316.5 q0 178 34 315 q34 137 97 229 q63 92 152.5 139.5 q89.5 47.5 201.5 47.5 ZM598 126 q144 0 223 131.5 q79 131.5 86 408.5 l-620 0 q7 -277 86 -408.5 q79 -131.5 225 -131.5 ZM598 1310 q-142 0 -221 -127.5 q-79 -127.5 -89 -392.5 l618 0 q-10 265 -88.5 392.5 q-78.5 127.5 -219.5 127.5 Z" /><glyph glyph-name="" unicode="&#x3b9;" d="M134 1013 l178 0 l0 -736 q0 -76 33 -115.5 q33 -39.5 106 -39.5 l82 0 l0 -56 q0 -19 -12 -33.5 q-12 -14.5 -32.5 -24.5 q-20.5 -10 -47.5 -15 q-27 -5 -58 -5 q-61 0 -107.5 20 q-46.5 20 -78 57 q-31.5 37 -47.5 88.5 q-16 51.5 -16 113.5 l0 746 Z" /><glyph glyph-name="" unicode="&#x3bb;" d="M437 926 l-101 280 q-11 30 -24 50.5 q-13 20.5 -31 33 q-18 12.5 -43 18 q-25 5.5 -60 5.5 l-72 0 l0 66 q0 14 5 26 q5 12 17.5 21 q12.5 9 34.5 14.5 q22 5.5 56 5.5 q43 0 83 -8 q40 -8 75 -27.5 q35 -19.5 63 -52.5 q28 -33 46 -83 l392 -1041 q22 -59 53.5 -85 q31.5 -26 88.5 -26 l61 0 l0 -72 q0 -38 -23 -49.5 q-23 -11.5 -68 -11.5 q-40 0 -78.5 7.5 q-38.5 7.5 -73 28.5 q-34.5 21 -63.5 58 q-29 37 -50 96 l-182 469 q-8 21 -13 40 q-5 19 -7 37 q-5 -18 -10.5 -36 q-5.5 -18 -13.5 -38 l-248 -615 q-6 -14 -19.5 -25.5 q-13.5 -11.5 -36.5 -11.5 l-151 0 l393 926 Z" /><glyph glyph-name="" unicode="&#x3bc;" d="M319 1013 l0 -625 q2 -109 55 -172 q53 -63 158 -63 q91 0 159.5 49 q68.5 49 114.5 137 l0 674 l179 0 l0 -739 q0 -78 40 -114 q40 -36 106 -36 l58 0 l0 -72 q0 -23 -31.5 -42.5 q-31.5 -19.5 -88.5 -19.5 q-42 0 -80.5 12 q-38.5 12 -70.5 37.5 q-32 25.5 -55 64 q-23 38.5 -33 91.5 q-59 -90 -136 -139.5 q-77 -49.5 -173 -49.5 q-75 0 -130.5 24 q-55.5 24 -93.5 69 q6 -41 9 -83.5 q3 -42.5 3 -79.5 l0 -279 l-89 0 q-38 0 -58.5 20 q-20.5 20 -20.5 56 l0 1280 l178 0 Z" /><glyph glyph-name="" unicode="&#x3bd;" d="M996 1013 q-64 -284 -179 -540.5 q-115 -256.5 -272 -472.5 l-110 0 l-413 1013 l146 0 q21 0 35.5 -11 q14.5 -11 19.5 -26 l257 -652 q22 -69 36 -135 q52 79 94 171.5 q42 92.5 75.5 191.5 q33.5 99 59.5 201.5 q26 102.5 47 203.5 q5 31 20 43.5 q15 12.5 35 12.5 l149 0 Z" /><glyph glyph-name="" unicode="&#x3be;" d="M767 1358 q0 -32 -22 -51 q-22 -19 -48 -19 l-88 0 q-68 0 -123.5 -20.5 q-55.5 -20.5 -95 -55.5 q-39.5 -35 -61.5 -83 q-22 -48 -22 -103 q0 -94 73.5 -145 q73.5 -51 213.5 -51 l88 0 l0 -142 l-131 0 q-75 0 -130 -18 q-55 -18 -91 -50 q-36 -32 -53.5 -77 q-17.5 -45 -17.5 -100 q0 -56 20 -97 q20 -41 60 -72.5 q40 -31.5 98.5 -58 q58.5 -26.5 136.5 -53.5 q65 -23 107.5 -47.5 q42.5 -24.5 67 -52.5 q24.5 -28 34.5 -60.5 q10 -32.5 10 -70.5 q0 -72 -22.5 -135.5 q-22.5 -63.5 -60.5 -126.5 l-139 56 q20 32 38 74.5 q18 42.5 18 85.5 q0 21 -5.5 40 q-5.5 19 -22 35.5 q-16.5 16.5 -46 31.5 q-29.5 15 -76.5 29 q-77 22 -148.5 54 q-71.5 32 -126.5 79 q-55 47 -87.5 113.5 q-32.5 66.5 -32.5 159.5 q0 48 12 98 q12 50 40 96 q28 46 73 84.5 q45 38.5 110 63.5 q-87 35 -131 97.5 q-44 62.5 -44 147.5 q0 48 16.5 90.5 q16.5 42.5 45 78 q28.5 35.5 67 64 q38.5 28.5 83.5 50.5 q-14 -1 -29 -1 q-15 0 -31 0 l-130 0 q-39 0 -56 18.5 q-17 18.5 -17 50.5 l0 68 l676 0 l0 -75 Z" /><glyph glyph-name="" unicode="&#x3c1;" d="M128 580 q0 103 31 186 q31 83 89 141.5 q58 58.5 141.5 90 q83.5 31.5 188.5 31.5 q96 0 180.5 -34 q84.5 -34 147 -100 q62.5 -66 99 -162 q36.5 -96 36.5 -220 q0 -112 -30 -208.5 q-30 -96.5 -86 -167 q-56 -70.5 -137.5 -111 q-81.5 -40.5 -183.5 -40.5 q-91 0 -166 33.5 q-75 33.5 -132 92.5 l0 -455 l-178 0 l0 923 ZM306 263 q51 -72 118.5 -105.5 q67.5 -33.5 139.5 -33.5 q141 0 217 101 q76 101 76 288 q0 99 -20.5 170 q-20.5 71 -57 116.5 q-36.5 45.5 -88 66.5 q-51.5 21 -113.5 21 q-57 0 -106.5 -20.5 q-49.5 -20.5 -86 -60 q-36.5 -39.5 -58 -96.5 q-21.5 -57 -21.5 -130 l0 -317 Z" /><glyph glyph-name="" unicode="&#x3c3;" d="M887 870 q77 -56 119.5 -149.5 q42.5 -93.5 42.5 -223.5 q0 -113 -33 -206.5 q-33 -93.5 -95 -161.5 q-62 -68 -151 -105.5 q-89 -37.5 -201 -37.5 q-109 0 -198.5 34.5 q-89.5 34.5 -153 100.5 q-63.5 66 -98.5 160.5 q-35 94.5 -35 214.5 q0 119 36 214 q36 95 106.5 161 q70.5 66 174 101.5 q103.5 35.5 237.5 35.5 l549 0 l0 -84 q0 -9 -4 -18.5 q-4 -9.5 -11.5 -17.5 q-7.5 -8 -18.5 -13 q-11 -5 -25 -5 l-241 0 ZM866 504 q0 66 -11 126 q-11 60 -32.5 108.5 q-21.5 48.5 -55 82.5 q-33.5 34 -78.5 49 l-51 0 q-99 0 -169.5 -25 q-70.5 -25 -115.5 -73 q-45 -48 -65.5 -118.5 q-20.5 -70.5 -20.5 -161.5 q0 -180 77.5 -273.5 q77.5 -93.5 223.5 -93.5 q151 0 224.5 97.5 q73.5 97.5 73.5 281.5 Z" /><glyph glyph-name="" unicode="&#x3c2;" d="M845 833 q-8 -11 -16 -17 q-8 -6 -22 -6 q-15 0 -33 12.5 q-18 12.5 -44.5 27.5 q-26.5 15 -65 27.5 q-38.5 12.5 -94.5 12.5 q-75 0 -132 -26 q-57 -26 -95.5 -71.5 q-38.5 -45.5 -58 -107 q-19.5 -61.5 -19.5 -132.5 q0 -98 25.5 -160 q25.5 -62 73.5 -104 q48 -42 117.5 -70 q69.5 -28 157.5 -57 q66 -23 108 -48 q42 -25 67 -53 q25 -28 34.5 -60.5 q9.5 -32.5 9.5 -69.5 q0 -72 -22.5 -136 q-22.5 -64 -60.5 -126 l-139 55 q20 32 38.5 74.5 q18.5 42.5 18.5 85.5 q0 21 -6 40 q-6 19 -22.5 36 q-16.5 17 -46 32 q-29.5 15 -76.5 29 q-95 28 -178.5 64 q-83.5 36 -146 93.5 q-62.5 57.5 -99 145 q-36.5 87.5 -36.5 219.5 q0 100 31.5 188.5 q31.5 88.5 92 154.5 q60.5 66 149.5 104.5 q89 38.5 204 38.5 q107 0 188.5 -34.5 q81.5 -34.5 144.5 -97.5 l-47 -64 Z" /><glyph glyph-name="" unicode="&#x3c4;" d="M26 945 q0 23 15.5 40.5 q15.5 17.5 45.5 17.5 l813 0 l0 -71 q0 -31 -16.5 -48 q-16.5 -17 -47.5 -17 l-319 0 l0 -586 q0 -76 33 -115.5 q33 -39.5 106 -39.5 l82 0 l0 -55 q0 -19 -12 -33.5 q-12 -14.5 -32.5 -24.5 q-20.5 -10 -47.5 -15 q-27 -5 -58 -5 q-61 0 -107.5 20 q-46.5 20 -78 57 q-31.5 37 -47.5 88 q-16 51 -16 113 l0 596 l-313 0 l0 78 Z" /><glyph glyph-name="" unicode="&#x3c5;" d="M309 1013 l0 -646 q0 -57 17 -102 q17 -45 48.5 -75.5 q31.5 -30.5 75 -47 q43.5 -16.5 97.5 -16.5 q49 0 98 20.5 q49 20.5 88 69 q39 48.5 63.5 128.5 q24.5 80 24.5 199 q0 103 -18.5 204.5 q-18.5 101.5 -35.5 204.5 q-3 33 14 47 q17 14 36 14 l122 0 q11 -63 21 -120.5 q10 -57.5 17.5 -114 q7.5 -56.5 12 -114.5 q4.5 -58 4.5 -121 q0 -146 -38 -252 q-38 -106 -101.5 -174 q-63.5 -68 -146.5 -100.5 q-83 -32.5 -172 -32.5 q-96 0 -171 26.5 q-75 26.5 -127.5 76 q-52.5 49.5 -80 120.5 q-27.5 71 -27.5 160 l0 646 l179 0 Z" /><glyph glyph-name="" unicode="&#x3c6;" d="M260 506 q0 -82 25 -152 q25 -70 74 -121.5 q49 -51.5 121.5 -81.5 q72.5 -30 168.5 -31 l0 594 q0 163 81 239 q81 76 226 76 q97 0 177 -38 q80 -38 137.5 -104 q57.5 -66 89.5 -156 q32 -90 32 -194 q0 -123 -40.5 -224.5 q-40.5 -101.5 -115.5 -173.5 q-75 -72 -181.5 -112 q-106.5 -40 -238.5 -41 l0 -328 l-167 0 l0 328 q-131 1 -236.5 41 q-105.5 40 -179 109.5 q-73.5 69.5 -113 164 q-39.5 94.5 -39.5 206.5 q0 90 25.5 169.5 q25.5 79.5 72 145.5 q46.5 66 112 116.5 q65.5 50.5 145.5 83.5 l45 -72 q13 -21 5 -44.5 q-8 -23.5 -24 -30.5 q-98 -51 -150 -147.5 q-52 -96.5 -52 -221.5 ZM816 120 q98 1 172 31 q74 30 124 84.5 q50 54.5 75.5 131 q25.5 76.5 25.5 170.5 q0 79 -21.5 144.5 q-21.5 65.5 -57 113 q-35.5 47.5 -82 74 q-46.5 26.5 -96.5 26.5 q-67 0 -103.5 -42.5 q-36.5 -42.5 -36.5 -138.5 l0 -594 Z" /><glyph glyph-name="" unicode="&#x3c7;" d="M460 235 q-5 -30 -12.5 -58.5 q-7.5 -28.5 -15.5 -50.5 l-214 -429 q-5 -14 -18 -25.5 q-13 -11.5 -36 -11.5 l-127 0 l343 711 l-182 412 q-14 30 -28 50 q-14 20 -33 33 q-19 13 -44 18.5 q-25 5.5 -60 5.5 l-35 0 l0 67 q0 14 1 26 q1 12 7.5 21 q6.5 9 22 14.5 q15.5 5.5 45.5 5.5 q101 0 167 -39 q66 -39 107 -133 l170 -385 q5 29 12.5 57.5 q7.5 28.5 15.5 50.5 l194 401 q6 14 18.5 25.5 q12.5 11.5 35.5 11.5 l127 0 l-325 -679 l199 -447 q26 -58 57.5 -84 q31.5 -26 88.5 -26 l36 0 l0 -72 q0 -19 -3.5 -31 q-3.5 -12 -11.5 -19 q-8 -7 -22.5 -9.5 q-14.5 -2.5 -36.5 -2.5 q-41 0 -78 7.5 q-37 7.5 -70 28.5 q-33 21 -62.5 58 q-29.5 37 -54.5 97 l-178 401 Z" /><glyph glyph-name="" unicode="&#x3c8;" d="M854 1433 l0 -1304 q80 7 150 31.5 q70 24.5 122 72.5 q52 48 82 124 q30 76 30 186 q0 70 -6.5 125.5 q-6.5 55.5 -15 103 q-8.5 47.5 -17.5 90.5 q-9 43 -15 90 q-1 33 15 47 q16 14 35 14 l127 0 q12 -63 22.5 -120.5 q10.5 -57.5 17.5 -114 q7 -56.5 11 -114.5 q4 -58 4 -121 q0 -149 -46 -251.5 q-46 -102.5 -123 -167 q-77 -64.5 -179 -96.5 q-102 -32 -214 -40 l0 -330 l-178 0 l0 329 q-272 16 -411 143 q-139 127 -139 346 l0 537 l123 0 q11 0 21 -7 q10 -7 17.5 -17.5 q7.5 -10.5 12 -22.5 q4.5 -12 4.5 -23 l0 -467 q0 -77 25.5 -137 q25.5 -60 73.5 -103.5 q48 -43.5 117 -70 q69 -26.5 156 -35.5 l0 1303 l178 0 Z" /><glyph glyph-name="" unicode="&#x3c9;" d="M495 126 q45 0 79 20.5 q34 20.5 56 57.5 q22 37 33 89 q11 52 11 115 l0 269 l179 0 l0 -269 q0 -63 11 -115 q11 -52 33.5 -89 q22.5 -37 56.5 -57.5 q34 -20.5 79 -20.5 q36 0 76 16.5 q40 16.5 73.5 58.5 q33.5 42 56 115 q22.5 73 22.5 186 q0 60 -13.5 123 q-13.5 63 -33 121 q-19.5 58 -42 106.5 q-22.5 48.5 -40.5 80.5 q-9 22 -7 37 q2 15 10 24.5 q8 9.5 19.5 14 q11.5 4.5 20.5 4.5 l126 0 q60 -117 99.5 -245 q39.5 -128 39.5 -266 q0 -120 -29 -215.5 q-29 -95.5 -80.5 -163 q-51.5 -67.5 -122.5 -103.5 q-71 -36 -154 -36 q-54 0 -98.5 13 q-44.5 13 -81 37 q-36.5 24 -64.5 57 q-28 33 -48 73 q-20 -40 -48 -73 q-28 -33 -64 -57 q-36 -24 -80 -37 q-44 -13 -96 -13 q-83 0 -154 36 q-71 36 -122.5 103.5 q-51.5 67.5 -80.5 163 q-29 95.5 -29 215.5 q0 138 39 266 q39 128 99 245 l127 0 q9 0 20.5 -4.5 q11.5 -4.5 19 -14 q7.5 -9.5 9.5 -24.5 q2 -15 -7 -37 q-18 -32 -40.5 -80.5 q-22.5 -48.5 -42 -106.5 q-19.5 -58 -33 -121 q-13.5 -63 -13.5 -123 q0 -113 22.5 -186 q22.5 -73 56 -115 q33.5 -42 74 -58.5 q40.5 -16.5 76.5 -16.5 Z" /><glyph glyph-name="" unicode="&#x384;" d="M345 1148 l68 345 l111 0 q27 0 37 -17.5 q10 -17.5 0 -46.5 l-110 -281 l-106 0 Z" /><glyph glyph-name="" unicode="&#x385;" d="M343 1154 l68 345 l111 0 q27 0 36.5 -17.5 q9.5 -17.5 -0.5 -46.5 l-109 -281 l-106 0 ZM788 1282 q0 -19 -7.5 -36 q-7.5 -17 -20.5 -29.5 q-13 -12.5 -30.5 -20 q-17.5 -7.5 -36.5 -7.5 q-20 0 -37 7.5 q-17 7.5 -30 20 q-13 12.5 -20.5 29.5 q-7.5 17 -7.5 36 q0 20 7.5 37.5 q7.5 17.5 20.5 31 q13 13.5 30 21 q17 7.5 37 7.5 q19 0 36.5 -7.5 q17.5 -7.5 30.5 -21 q13 -13.5 20.5 -31 q7.5 -17.5 7.5 -37.5 ZM286 1282 q0 -19 -8 -36 q-8 -17 -21 -29.5 q-13 -12.5 -31 -20 q-18 -7.5 -37 -7.5 q-19 0 -36 7.5 q-17 7.5 -29.5 20 q-12.5 12.5 -20 29.5 q-7.5 17 -7.5 36 q0 20 7.5 37.5 q7.5 17.5 20 31 q12.5 13.5 29.5 21 q17 7.5 36 7.5 q19 0 37 -7.5 q18 -7.5 31 -21 q13 -13.5 21 -31 q8 -17.5 8 -37.5 Z" /><glyph glyph-name="" unicode="&#x374;" d="M310 1512 q27 -144 -8 -282.5 q-35 -138.5 -142 -254.5 l-55 36 q-16 11 -17 25 q-1 14 7 25 q26 36 46 71 q20 35 29.5 71.5 q9.5 36.5 5.5 75 q-4 38.5 -26 80.5 l0 104 q0 21 11.5 35 q11.5 14 37.5 14 l111 0 Z" /><glyph glyph-name="" unicode="&#x375;" d="M310 329 q27 -144 -8 -282.5 q-35 -138.5 -142 -254.5 l-55 36 q-16 11 -17 25 q-1 14 7 25 q26 36 46 71 q20 35 29.5 71.5 q9.5 36.5 5.5 75 q-4 38.5 -26 80.5 l0 104 q0 21 11.5 35 q11.5 14 37.5 14 l111 0 Z" /><glyph glyph-name="" unicode="&#x411;" d="M1109 1280 l-733 0 l0 -464 l279 0 q131 0 226 -28.5 q95 -28.5 156.5 -80 q61.5 -51.5 91 -122.5 q29.5 -71 29.5 -155 q0 -99 -33.5 -178.5 q-33.5 -79.5 -98 -135.5 q-64.5 -56 -158.5 -86 q-94 -30 -214 -30 l-471 0 l0 1433 l926 0 l0 -153 ZM376 662 l0 -508 l278 0 q83 0 142.5 19 q59.5 19 97 52.5 q37.5 33.5 55 81 q17.5 47.5 17.5 104.5 q0 60 -17.5 106.5 q-17.5 46.5 -55 79 q-37.5 32.5 -96.5 49 q-59 16.5 -142 16.5 l-279 0 Z" /><glyph glyph-name="" unicode="&#x413;" d="M1046 1280 l-669 0 l0 -1280 l-194 0 l0 1433 l863 0 l0 -153 Z" /><glyph glyph-name="" unicode="&#x490;" d="M1046 1280 l-669 0 l0 -1280 l-194 0 l0 1433 l712 0 l0 323 l151 0 l0 -476 Z" /><glyph glyph-name="" unicode="&#x414;" d="M1290 1433 l0 -1281 l234 0 l0 -443 q0 -26 -17 -42 q-17 -16 -45 -16 l-115 0 l0 349 l-1155 0 l0 -291 q0 -26 -17.5 -42 q-17.5 -16 -44.5 -16 l-116 0 l0 501 l146 0 q31 15 62 48.5 q31 33.5 59.5 96 q28.5 62.5 53.5 157.5 q25 95 45.5 232.5 q20.5 137.5 35.5 321.5 q15 184 23 425 l851 0 ZM621 1280 q-12 -246 -34.5 -431 q-22.5 -185 -52.5 -320.5 q-30 -135.5 -67 -227 q-37 -91.5 -79 -149.5 l707 0 l0 1128 l-474 0 Z" /><glyph glyph-name="" unicode="&#x416;" d="M202 1433 q31 0 56.5 -15.5 q25.5 -15.5 41.5 -42.5 l359 -497 q31 -44 65.5 -58.5 q34.5 -14.5 80.5 -14.5 l142 0 l0 628 l183 0 l0 -628 l143 0 q45 0 79 14.5 q34 14.5 66 58.5 l359 497 q16 27 42 42.5 q26 15.5 56 15.5 l152 0 l-418 -573 q-28 -42 -58 -69 q-30 -27 -73 -42 q49 -15 87 -45.5 q38 -30.5 70 -82.5 l425 -621 l-129 0 q-42 0 -73 18.5 q-31 18.5 -50 50.5 l-363 508 q-27 42 -61.5 60.5 q-34.5 18.5 -87.5 18.5 l-166 0 l0 -656 l-183 0 l0 656 l-165 0 q-54 0 -88.5 -18.5 q-34.5 -18.5 -61.5 -60.5 l-363 -508 q-18 -32 -49 -50.5 q-31 -18.5 -73 -18.5 l-130 0 l426 621 q32 52 69.5 82.5 q37.5 30.5 85.5 45.5 q-42 15 -72 42 q-30 27 -58 69 l-417 573 l151 0 Z" /><glyph glyph-name="" unicode="&#x417;" d="M1010 1081 q0 -108 -53.5 -190 q-53.5 -82 -150.5 -128 q55 -23 100 -56 q45 -33 77.5 -75 q32.5 -42 50 -92 q17.5 -50 17.5 -105 q0 -94 -35 -176 q-35 -82 -101.5 -142.5 q-66.5 -60.5 -163.5 -95.5 q-97 -35 -221 -35 q-154 0 -277 50.5 q-123 50.5 -211 136.5 l56 92 q8 11 20 18.5 q12 7.5 26 7.5 q21 0 50 -22.5 q29 -22.5 74 -49.5 q45 -27 109.5 -49.5 q64.5 -22.5 157.5 -22.5 q79 0 141.5 19 q62.5 19 105 55 q42.5 36 65 88 q22.5 52 22.5 117 q0 56 -21.5 103 q-21.5 47 -62.5 80.5 q-41 33.5 -100 52 q-59 18.5 -133 18.5 l-196 0 l0 159 l188 0 q61 0 113.5 15 q52.5 15 90 44 q37.5 29 59 71 q21.5 42 21.5 96 q0 49 -20 90 q-20 41 -58 70.5 q-38 29.5 -93 45.5 q-55 16 -125 16 q-81 0 -138 -17 q-57 -17 -96 -37.5 q-39 -20.5 -63.5 -37.5 q-24.5 -17 -42.5 -17 q-16 0 -26 7 q-10 7 -19 23 l-47 91 q81 72 188 110 q107 38 243 38 q111 0 199.5 -27 q88.5 -27 150.5 -76 q62 -49 95.5 -116 q33.5 -67 33.5 -147 Z" /><glyph glyph-name="" unicode="&#x418;" d="M1113 1372 q14 23 36 42 q22 19 51 19 l144 0 l0 -1433 l-194 0 l0 1018 q0 42 2 88.5 q2 46.5 9 98.5 q-17 -45 -36.5 -83.5 q-19.5 -38.5 -38.5 -67.5 l-672 -993 q-14 -23 -36 -42 q-22 -19 -51 -19 l-144 0 l0 1433 l194 0 l0 -1019 q0 -43 -2 -89.5 q-2 -46.5 -9 -99.5 q17 46 36.5 84.5 q19.5 38.5 38.5 69.5 l672 993 Z" /><glyph glyph-name="" unicode="&#x41a;" d="M376 805 l149 0 q45 0 76.5 14 q31.5 14 62.5 55 l375 504 q15 24 36.5 39.5 q21.5 15.5 50.5 15.5 l163 0 l-433 -589 q-25 -36 -56.5 -59 q-31.5 -23 -69.5 -36 q53 -14 89 -44.5 q36 -30.5 70 -84.5 l438 -620 l-174 0 q-29 0 -49.5 15.5 q-20.5 15.5 -38.5 45.5 l-379 525 q-26 39 -56 54.5 q-30 15.5 -82 15.5 l-172 0 l0 -656 l-193 0 l0 1433 l193 0 l0 -628 Z" /><glyph glyph-name="" unicode="&#x41b;" d="M1268 1433 l0 -1433 l-194 0 l0 1280 l-474 0 q-14 -276 -37.5 -479 q-23.5 -203 -57 -347 q-33.5 -144 -76 -234.5 q-42.5 -90.5 -93 -142.5 q-50.5 -52 -108.5 -71 q-58 -19 -123 -19 q-54 0 -83 9.5 q-29 9.5 -29 28.5 l0 123 l70 0 q40 0 79 15.5 q39 15.5 75 62.5 q36 47 68 134 q32 87 58 230 q26 143 45 349.5 q19 206.5 29 493.5 l851 0 Z" /><glyph glyph-name="" unicode="&#x409;" d="M1268 1433 l0 -617 l279 0 q131 0 225.5 -28.5 q94.5 -28.5 156 -80 q61.5 -51.5 91 -122.5 q29.5 -71 29.5 -155 q0 -99 -33.5 -178.5 q-33.5 -79.5 -97.5 -135.5 q-64 -56 -158 -86 q-94 -30 -214 -30 l-472 0 l0 1280 l-474 0 q-14 -276 -37.5 -479 q-23.5 -203 -57 -347 q-33.5 -144 -76 -234.5 q-42.5 -90.5 -93 -142.5 q-50.5 -52 -108.5 -71 q-58 -19 -123 -19 q-54 0 -83 9.5 q-29 9.5 -29 28.5 l0 123 l70 0 q40 0 79 15.5 q39 15.5 75 62.5 q36 47 68 134 q32 87 58 230 q26 143 45 349.5 q19 206.5 29 493.5 l851 0 ZM1268 662 l0 -508 l278 0 q83 0 142 19 q59 19 97 52.5 q38 33.5 55.5 81 q17.5 47.5 17.5 104.5 q0 60 -17.5 106.5 q-17.5 46.5 -55 79 q-37.5 32.5 -96.5 49 q-59 16.5 -142 16.5 l-279 0 Z" /><glyph glyph-name="" unicode="&#x40a;" d="M1344 816 l279 0 q131 0 226 -28.5 q95 -28.5 156.5 -80 q61.5 -51.5 91 -122.5 q29.5 -71 29.5 -155 q0 -99 -33.5 -178.5 q-33.5 -79.5 -98 -135.5 q-64.5 -56 -158.5 -86 q-94 -30 -214 -30 l-472 0 l0 652 l-773 0 l0 -652 l-194 0 l0 1433 l194 0 l0 -639 l773 0 l0 639 l194 0 l0 -617 ZM1344 662 l0 -508 l278 0 q83 0 142.5 19 q59.5 19 97 52.5 q37.5 33.5 55 81 q17.5 47.5 17.5 104.5 q0 60 -17.5 106.5 q-17.5 46.5 -55 79 q-37.5 32.5 -96.5 49 q-59 16.5 -142 16.5 l-279 0 Z" /><glyph glyph-name="" unicode="&#x472;" d="M1507 716 q0 -161 -51 -295.5 q-51 -134.5 -144 -231.5 q-93 -97 -223.5 -150.5 q-130.5 -53.5 -288.5 -53.5 q-158 0 -288 53.5 q-130 53.5 -223 150.5 q-93 97 -144 231.5 q-51 134.5 -51 295.5 q0 161 51 295.5 q51 134.5 144 232 q93 97.5 223 151.5 q130 54 288 54 q158 0 288.5 -54 q130.5 -54 223.5 -151.5 q93 -97.5 144 -232 q51 -134.5 51 -295.5 ZM800 153 q109 0 198.5 34 q89.5 34 155 99 q65.5 65 105 158 q39.5 93 47.5 212 l-1012 0 q8 -119 47.5 -212 q39.5 -93 105.5 -158 q66 -65 155.5 -99 q89.5 -34 197.5 -34 ZM800 1281 q-105 0 -193 -32.5 q-88 -32.5 -153 -94 q-65 -61.5 -105.5 -150.5 q-40.5 -89 -52.5 -201 l1007 0 q-11 112 -51.5 201 q-40.5 89 -105.5 150.5 q-65 61.5 -152.5 94 q-87.5 32.5 -193.5 32.5 Z" /><glyph glyph-name="" unicode="&#x41f;" d="M1288 0 l-195 0 l0 1280 l-716 0 l0 -1280 l-194 0 l0 1433 l1105 0 l0 -1433 Z" /><glyph glyph-name="" unicode="&#x423;" d="M333 148 q25 0 50 5.5 q25 5.5 48 19.5 q23 14 44 37.5 q21 23.5 38 59.5 l70 146 l-576 1017 l181 0 q26 0 41 -12.5 q15 -12.5 26 -32.5 l354 -650 q37 -71 60 -144 q10 36 24 72 q14 36 31 72 l301 650 q8 17 24.5 31 q16.5 14 41.5 14 l160 0 l-582 -1246 q-27 -59 -58.5 -97.5 q-31.5 -38.5 -67.5 -61 q-36 -22.5 -78 -32 q-42 -9.5 -90 -9.5 q-54 0 -83 9.5 q-29 9.5 -29 28.5 l0 123 l70 0 l0 0 Z" /><glyph glyph-name="" unicode="&#x474;" d="M3 1433 l155 0 q26 0 42 -13 q16 -13 24 -33 l405 -1011 q13 -34 25 -73.5 q12 -39.5 22 -82.5 q9 43 20.5 82.5 q11.5 39.5 24.5 73.5 l297 871 q32 97 98 144.5 q66 47.5 163 47.5 q53 0 74 -9 q21 -9 21 -29 l0 -121 l-54 0 q-44 0 -77.5 -26.5 q-33.5 -26.5 -53.5 -79.5 l-428 -1174 l-174 0 l-584 1433 Z" /><glyph glyph-name="" unicode="&#x424;" d="M875 1329 q137 -3 250 -49.5 q113 -46.5 193.5 -124.5 q80.5 -78 125 -181.5 q44.5 -103.5 44.5 -220.5 q0 -118 -44.5 -222 q-44.5 -104 -125 -182.5 q-80.5 -78.5 -193.5 -125.5 q-113 -47 -250 -50 l0 -173 l-184 0 l0 173 q-138 3 -251 50 q-113 47 -193.5 125.5 q-80.5 78.5 -125 182.5 q-44.5 104 -44.5 222 q0 117 45 220.5 q45 103.5 126 181.5 q81 78 194 124.5 q113 46.5 249 49.5 l0 169 l184 0 l0 -169 ZM271 753 q0 -88 30 -165 q30 -77 85 -135 q55 -58 132.5 -92 q77.5 -34 172.5 -35 l0 853 q-95 -2 -172.5 -36 q-77.5 -34 -132.5 -91.5 q-55 -57.5 -85 -134.5 q-30 -77 -30 -164 ZM1295 753 q0 87 -30 163.5 q-30 76.5 -85.5 134.5 q-55.5 58 -133 92 q-77.5 34 -171.5 36 l0 -853 q94 1 171.5 35 q77.5 34 133 92 q55.5 58 85.5 135 q30 77 30 165 Z" /><glyph glyph-name="" unicode="&#x426;" d="M183 0 l0 1433 l194 0 l0 -1281 l716 0 l0 1281 l195 0 l0 -1281 l219 0 l0 -443 q0 -26 -17.5 -42 q-17.5 -16 -44.5 -16 l-116 0 l0 349 l-1146 0 Z" /><glyph glyph-name="" unicode="&#x40f;" d="M1288 0 l-464 0 l0 -291 q0 -26 -17.5 -42 q-17.5 -16 -44.5 -16 l-116 0 l0 349 l-463 0 l0 1433 l194 0 l0 -1281 l716 0 l0 1281 l195 0 l0 -1433 Z" /><glyph glyph-name="" unicode="&#x427;" d="M1140 0 l-195 0 l0 619 q-115 -30 -222.5 -47.5 q-107.5 -17.5 -202.5 -16.5 q-95 1 -173.5 23.5 q-78.5 22.5 -135 71 q-56.5 48.5 -88 126 q-31.5 77.5 -31.5 189.5 l0 468 l194 0 l0 -469 q0 -99 40 -160 q40 -61 122 -85 q82 -24 205.5 -13.5 q123.5 10.5 291.5 54.5 l0 673 l195 0 l0 -1433 Z" /><glyph glyph-name="" unicode="&#x428;" d="M1970 0 l-1787 0 l0 1433 l194 0 l0 -1281 l600 0 l0 1281 l194 0 l0 -1281 l604 0 l0 1281 l195 0 l0 -1433 Z" /><glyph glyph-name="" unicode="&#x429;" d="M183 0 l0 1433 l194 0 l0 -1281 l600 0 l0 1281 l194 0 l0 -1281 l604 0 l0 1281 l195 0 l0 -1281 l219 0 l0 -443 q0 -26 -17.5 -42 q-17.5 -16 -44.5 -16 l-116 0 l0 349 l-1828 0 Z" /><glyph glyph-name="" unicode="&#x42a;" d="M29 1433 l605 0 l0 -617 l279 0 q131 0 226 -28.5 q95 -28.5 156.5 -80 q61.5 -51.5 91 -122.5 q29.5 -71 29.5 -155 q0 -99 -33.5 -178.5 q-33.5 -79.5 -98 -135.5 q-64.5 -56 -158.5 -86 q-94 -30 -214 -30 l-471 0 l0 1275 l-412 0 l0 158 ZM634 662 l0 -508 l278 0 q83 0 142.5 19 q59.5 19 97 52.5 q37.5 33.5 55 81 q17.5 47.5 17.5 104.5 q0 60 -17.5 106.5 q-17.5 46.5 -55 79 q-37.5 32.5 -96.5 49 q-59 16.5 -142 16.5 l-279 0 Z" /><glyph glyph-name="" unicode="&#x42c;" d="M376 1433 l0 -617 l279 0 q131 0 226 -28.5 q95 -28.5 156.5 -80 q61.5 -51.5 91 -122.5 q29.5 -71 29.5 -155 q0 -99 -33.5 -178.5 q-33.5 -79.5 -98 -135.5 q-64.5 -56 -158.5 -86 q-94 -30 -214 -30 l-471 0 l0 1433 l193 0 ZM376 662 l0 -508 l278 0 q83 0 142.5 19 q59.5 19 97 52.5 q37.5 33.5 55 81 q17.5 47.5 17.5 104.5 q0 60 -17.5 106.5 q-17.5 46.5 -55 79 q-37.5 32.5 -96.5 49 q-59 16.5 -142 16.5 l-279 0 Z" /><glyph glyph-name="" unicode="&#x42d;" d="M162 296 q17 0 34 -15 q37 -34 74.5 -58.5 q37.5 -24.5 81 -40.5 q43.5 -16 94.5 -23.5 q51 -7.5 116 -7.5 q99 0 185 34 q86 34 152 98.5 q66 64.5 107 158.5 q41 94 50 214 l-723 0 l0 147 l720 0 q-12 112 -53 201 q-41 89 -106 150.5 q-65 61.5 -151 94 q-86 32.5 -187 32.5 q-92 0 -155 -19.5 q-63 -19.5 -105 -43.5 q-42 -24 -68 -43.5 q-26 -19.5 -44 -19.5 q-16 0 -25.5 6.5 q-9.5 6.5 -15.5 16.5 l-64 89 q89 84 206 133 q117 49 270 49 q156 0 285 -53.5 q129 -53.5 221.5 -150.5 q92.5 -97 143.5 -232 q51 -135 51 -297 q0 -162 -49 -297 q-49 -135 -138 -231.5 q-89 -96.5 -215 -150 q-126 -53.5 -280 -53.5 q-178 0 -303.5 57 q-125.5 57 -213.5 159 l77 83 q12 13 28 13 Z" /><glyph glyph-name="" unicode="&#x404;" d="M1189 296 q16 0 28 -13 l77 -83 q-88 -102 -213.5 -159 q-125.5 -57 -303.5 -57 q-154 0 -280 53.5 q-126 53.5 -215 150 q-89 96.5 -138 231.5 q-49 135 -49 297 q0 162 51 297 q51 135 143.5 232 q92.5 97 221.5 150.5 q129 53.5 285 53.5 q153 0 270 -49 q117 -49 206 -133 l-64 -89 q-6 -10 -15.5 -16.5 q-9.5 -6.5 -25.5 -6.5 q-18 0 -44 19.5 q-26 19.5 -68 43.5 q-42 24 -105 43.5 q-63 19.5 -155 19.5 q-101 0 -187 -32.5 q-86 -32.5 -151 -94 q-65 -61.5 -106.5 -150.5 q-41.5 -89 -53.5 -201 l720 0 l0 -147 l-722 0 q9 -120 50 -214 q41 -94 107 -158.5 q66 -64.5 152 -98.5 q86 -34 185 -34 q64 0 115.5 7.5 q51.5 7.5 95 23.5 q43.5 16 81 40.5 q37.5 24.5 74.5 58.5 q17 15 34 15 Z" /><glyph glyph-name="" unicode="&#x42e;" d="M377 792 l310 0 q11 145 61.5 266 q50.5 121 135 208 q84.5 87 199.5 135 q115 48 255 48 q148 0 268.5 -54 q120.5 -54 206 -151.5 q85.5 -97.5 132 -232 q46.5 -134.5 46.5 -295.5 q0 -161 -46.5 -295.5 q-46.5 -134.5 -132 -231 q-85.5 -96.5 -206 -150 q-120.5 -53.5 -268.5 -53.5 q-140 0 -255 47.5 q-115 47.5 -199.5 133.5 q-84.5 86 -135 206.5 q-50.5 120.5 -61.5 266.5 l-310 0 l0 -640 l-194 0 l0 1433 l194 0 l0 -641 ZM1338 148 q104 0 188 39 q84 39 143.5 112.5 q59.5 73.5 91.5 179 q32 105.5 32 237.5 q0 132 -32 237.5 q-32 105.5 -91.5 179.5 q-59.5 74 -143.5 113.5 q-84 39.5 -188 39.5 q-105 0 -189 -39.5 q-84 -39.5 -143.5 -113.5 q-59.5 -74 -91.5 -179.5 q-32 -105.5 -32 -237.5 q0 -132 32 -237.5 q32 -105.5 91.5 -179 q59.5 -73.5 143.5 -112.5 q84 -39 189 -39 Z" /><glyph glyph-name="" unicode="&#x42f;" d="M954 0 l0 617 l-206 0 q-25 -1 -47 -6 q-22 -5 -43 -17 q-21 -12 -41.5 -32.5 q-20.5 -20.5 -41.5 -50.5 l-311 -442 q-18 -32 -49 -50.5 q-31 -18.5 -73 -18.5 l-146 0 l371 523 q60 88 141 125 q-86 16 -150 50 q-64 34 -106.5 82.5 q-42.5 48.5 -63.5 110.5 q-21 62 -21 134 q0 92 33.5 167 q33.5 75 98 128.5 q64.5 53.5 158 83 q93.5 29.5 213.5 29.5 l477 0 l0 -1433 l-193 0 ZM358 1026 q0 -60 17.5 -107.5 q17.5 -47.5 55 -80.5 q37.5 -33 97 -50.5 q59.5 -17.5 142.5 -17.5 l284 0 l0 509 l-284 0 q-83 0 -142 -18 q-59 -18 -97 -51.5 q-38 -33.5 -55.5 -80 q-17.5 -46.5 -17.5 -103.5 Z" /><glyph glyph-name="" unicode="&#x402;" d="M1074 1433 l0 -157 l-453 0 l0 -460 l309 0 q131 0 226 -28.5 q95 -28.5 156.5 -80 q61.5 -51.5 91 -122.5 q29.5 -71 29.5 -155 q0 -99 -33.5 -178.5 q-33.5 -79.5 -98 -135.5 q-64.5 -56 -158.5 -86 q-94 -30 -214 -30 l-96 0 l0 154 l96 0 q83 0 142.5 19 q59.5 19 97 52.5 q37.5 33.5 55 81 q17.5 47.5 17.5 104.5 q0 60 -17.5 106.5 q-17.5 46.5 -55 79 q-37.5 32.5 -96.5 49 q-59 16.5 -142 16.5 l-309 0 l0 -662 l-194 0 l0 1276 l-400 0 l0 157 l1047 0 Z" /><glyph glyph-name="" unicode="&#x40b;" d="M1407 -1 l-194 0 l0 464 q0 99 -32.5 159.5 q-32.5 60.5 -103 85 q-70.5 24.5 -183.5 14 q-113 -10.5 -273 -53.5 l0 -668 l-194 0 l0 1276 l-400 0 l0 157 l1047 0 l0 -157 l-453 0 l0 -467 q113 30 215 47 q102 17 189.5 15.5 q87.5 -1.5 158 -23.5 q70.5 -22 120 -70.5 q49.5 -48.5 76.5 -126 q27 -77.5 27 -188.5 l0 -464 Z" /><glyph glyph-name="" unicode="&#x462;" d="M609 1433 l0 -221 l445 0 l0 -146 l-445 0 l0 -250 l279 0 q131 0 226 -28.5 q95 -28.5 156.5 -80 q61.5 -51.5 91 -122.5 q29.5 -71 29.5 -155 q0 -99 -33.5 -178.5 q-33.5 -79.5 -98 -135.5 q-64.5 -56 -158.5 -86 q-94 -30 -214 -30 l-471 0 l0 1066 l-362 0 l0 146 l362 0 l0 221 l193 0 ZM609 662 l0 -508 l278 0 q83 0 142.5 19 q59.5 19 97 52.5 q37.5 33.5 55 81 q17.5 47.5 17.5 104.5 q0 60 -17.5 106.5 q-17.5 46.5 -55 79 q-37.5 32.5 -96.5 49 q-59 16.5 -142 16.5 l-279 0 Z" /><glyph glyph-name="" unicode="&#x431;" d="M667 1251 q-102 -9 -174.5 -45 q-72.5 -36 -120.5 -98 q-48 -62 -72 -147.5 q-24 -85.5 -28 -193.5 q24 48 62 86.5 q38 38.5 87 66 q49 27.5 106.5 42 q57.5 14.5 122.5 14.5 q101 0 181.5 -35.5 q80.5 -35.5 137 -100.5 q56.5 -65 86.5 -156.5 q30 -91.5 30 -202.5 q0 -113 -34.5 -204.5 q-34.5 -91.5 -98.5 -156 q-64 -64.5 -153.5 -99.5 q-89.5 -35 -200.5 -35 q-102 0 -191 34 q-89 34 -154 112 q-65 78 -102.5 205.5 q-37.5 127.5 -37.5 314.5 q0 160 29 294 q29 134 93.5 233 q64.5 99 167 159.5 q102.5 60.5 249.5 73.5 l362 31 l10 -92 q3 -31 -9 -52 q-12 -21 -43 -23 l-305 -25 ZM598 118 q150 0 226.5 95.5 q76.5 95.5 76.5 267.5 q0 171 -73.5 267 q-73.5 96 -220.5 96 q-71 0 -128 -22.5 q-57 -22.5 -96.5 -65.5 q-39.5 -43 -61 -106 q-21.5 -63 -21.5 -144 q0 -91 19 -163 q19 -72 56.5 -122 q37.5 -50 93 -76.5 q55.5 -26.5 129.5 -26.5 Z" /><glyph glyph-name="" unicode="&#x432;" d="M141 1013 l371 0 q94 0 161 -19 q67 -19 110 -51.5 q43 -32.5 63 -76.5 q20 -44 20 -94 q0 -33 -9 -69 q-9 -36 -31.5 -69 q-22.5 -33 -61 -59.5 q-38.5 -26.5 -96.5 -41.5 q115 -20 178.5 -80.5 q63.5 -60.5 63.5 -159.5 q0 -74 -29.5 -128.5 q-29.5 -54.5 -81 -91.5 q-51.5 -37 -120.5 -55 q-69 -18 -148 -18 l-390 0 l0 1013 ZM312 462 l0 -337 l218 0 q100 0 158 46.5 q58 46.5 58 127.5 q0 36 -11 65.5 q-11 29.5 -36 51.5 q-25 22 -66.5 34 q-41.5 12 -101.5 12 l-219 0 ZM312 575 l195 0 q44 0 81.5 12.5 q37.5 12.5 64.5 35 q27 22.5 42 54 q15 31.5 15 69.5 q0 28 -10 54.5 q-10 26.5 -34 47 q-24 20.5 -63 33 q-39 12.5 -96 12.5 l-195 0 l0 -318 Z" /><glyph glyph-name="" unicode="&#x433;" d="M798 1013 l0 -136 l-478 0 l0 -877 l-179 0 l0 1013 l657 0 Z" /><glyph glyph-name="" unicode="&#x491;" d="M798 1263 l0 -386 l-478 0 l0 -877 l-179 0 l0 1013 l496 0 l0 250 l161 0 Z" /><glyph glyph-name="" unicode="&#x434;" d="M1012 1013 l0 -878 l185 0 l0 -429 q0 -26 -14.5 -40.5 q-14.5 -14.5 -37.5 -14.5 l-109 0 l0 349 l-852 0 l0 -298 q0 -19 -11.5 -35 q-11.5 -16 -37.5 -16 l-112 0 l0 479 l43 0 q34 1 67.5 14.5 q33.5 13.5 64.5 49 q31 35.5 58 97.5 q27 62 49.5 159.5 q22.5 97.5 39.5 236 q17 138.5 26 326.5 l641 0 ZM518 873 q-10 -156 -28 -276 q-18 -120 -41.5 -210.5 q-23.5 -90.5 -52 -153.5 q-28.5 -63 -59.5 -103 l502 0 l0 743 l-321 0 Z" /><glyph glyph-name="" unicode="&#x436;" d="M488 643 q22 -33 53 -50.5 q31 -17.5 73 -17.5 l87 0 l0 438 l173 0 l0 -438 l85 0 q85 0 128 68 l215 320 q12 23 33.5 36.5 q21.5 13.5 47.5 13.5 l140 0 l-264 -386 q-24 -37 -50 -60.5 q-26 -23.5 -64 -36.5 q48 -13 81 -40.5 q33 -27.5 59 -70.5 l266 -419 l-124 0 q-48 0 -73.5 15 q-25.5 15 -39.5 47 l-197 315 q-49 78 -141 78 l-102 0 l0 -456 l-173 0 l0 456 l-101 0 q-45 0 -81.5 -20 q-36.5 -20 -59.5 -58 l-197 -315 q-15 -32 -40.5 -47 q-25.5 -15 -73.5 -15 l-123 0 l266 419 q26 43 58.5 70.5 q32.5 27.5 80.5 40.5 q-38 13 -64 36.5 q-26 23.5 -49 60.5 l-264 386 l140 0 q26 0 47 -13.5 q21 -13.5 33 -36.5 l215 -320 Z" /><glyph glyph-name="" unicode="&#x437;" d="M77 909 q57 54 138.5 87 q81.5 33 196.5 33 q92 0 162 -22.5 q70 -22.5 117.5 -59.5 q47.5 -37 72 -84.5 q24.5 -47.5 24.5 -98.5 q0 -30 -9.5 -63 q-9.5 -33 -31.5 -63 q-22 -30 -57 -56 q-35 -26 -87 -42 q97 -29 152.5 -93 q55.5 -64 55.5 -157 q0 -70 -32 -126.5 q-32 -56.5 -86 -96 q-54 -39.5 -125.5 -60.5 q-71.5 -21 -149.5 -21 q-49 0 -99.5 9 q-50.5 9 -98.5 28.5 q-48 19.5 -90.5 48.5 q-42.5 29 -75.5 70 l50 65 q12 17 34 17 q18 0 38.5 -15.5 q20.5 -15.5 50.5 -34.5 q30 -19 73.5 -34.5 q43.5 -15.5 106.5 -15.5 q55 0 98.5 13.5 q43.5 13.5 73.5 37.5 q30 24 46 57 q16 33 16 72 q0 75 -62.5 121 q-62.5 46 -189.5 46 l-115 0 l0 118 l115 0 q55 0 99 11.5 q44 11.5 75 31.5 q31 20 47 48.5 q16 28.5 16 61.5 q0 30 -13.5 57 q-13.5 27 -41 47 q-27.5 20 -68.5 32 q-41 12 -96 12 q-60 0 -101.5 -12 q-41.5 -12 -70 -26 q-28.5 -14 -46.5 -26 q-18 -12 -31 -12 q-13 0 -21.5 5 q-8.5 5 -18.5 21 l-41 69 Z" /><glyph glyph-name="" unicode="&#x438;" d="M141 -1 l0 1013 l179 0 l0 -688 q0 -19 -2 -41.5 q-2 -22.5 -5 -45.5 q8 20 17.5 36 q9.5 16 18.5 30 q1 2 23 31.5 q22 29.5 56.5 77 q34.5 47.5 78.5 107 q44 59.5 89 121.5 q106 145 242 328 q11 16 28 30.5 q17 14.5 37 14.5 l107 0 l0 -1013 l-178 0 l0 688 q0 19 2 42 q2 23 5 46 q-9 -20 -18.5 -36.5 q-9.5 -16.5 -18.5 -30.5 q-2 -2 -23.5 -32 q-21.5 -30 -56.5 -77 q-35 -47 -79 -106.5 q-44 -59.5 -89 -121.5 q-106 -145 -241 -328 q-11 -16 -27.5 -30.5 q-16.5 -14.5 -36.5 -14.5 l-108 0 Z" /><glyph glyph-name="" unicode="&#x43a;" d="M756 963 q14 22 37 36 q23 14 49 14 l139 0 l-263 -386 q-24 -37 -50 -60.5 q-26 -23.5 -64 -36.5 q48 -13 81 -40.5 q33 -27.5 59 -70.5 l266 -419 l-124 0 q-48 0 -74 16 q-26 16 -45 46 l-197 315 q-47 78 -141 78 l-109 0 l0 -456 l-179 0 l0 1014 l179 0 l0 -438 l96 0 q80 0 125 68 l215 320 Z" /><glyph glyph-name="" unicode="&#x43b;" d="M1029 1013 l0 -1013 l-178 0 l0 873 l-320 0 q-12 -193 -36 -333.5 q-24 -140.5 -57.5 -239 q-33.5 -98.5 -75 -160 q-41.5 -61.5 -87 -95.5 q-45.5 -34 -94 -46 q-48.5 -12 -96.5 -12 q-85 0 -85 27 l0 113 l52 0 q34 0 69 12 q35 12 68.5 46 q33.5 34 64.5 95.5 q31 61.5 56.5 160 q25.5 98.5 44 239 q18.5 140.5 28.5 333.5 l646 0 Z" /><glyph glyph-name="" unicode="&#x459;" d="M1029 1013 l0 -397 l215 0 q105 0 176.5 -25 q71.5 -25 115.5 -67 q44 -42 63 -97 q19 -55 19 -114 q0 -68 -24.5 -125.5 q-24.5 -57.5 -71.5 -99 q-47 -41.5 -116 -65 q-69 -23.5 -158 -23.5 l-397 0 l0 873 l-320 0 q-12 -193 -36 -333.5 q-24 -140.5 -57.5 -239 q-33.5 -98.5 -75 -160 q-41.5 -61.5 -87 -95.5 q-45.5 -34 -94 -46 q-48.5 -12 -96.5 -12 q-85 0 -85 27 l0 113 l52 0 q34 0 69 12 q35 12 68.5 46 q33.5 34 64.5 95.5 q31 61.5 56.5 160 q25.5 98.5 44 239 q18.5 140.5 28.5 333.5 l646 0 ZM1029 486 l0 -356 l218 0 q54 0 93.5 13.5 q39.5 13.5 66 38 q26.5 24.5 39.5 57.5 q13 33 13 72 q0 36 -11.5 67.5 q-11.5 31.5 -37 55.5 q-25.5 24 -66.5 38 q-41 14 -100 14 l-215 0 Z" /><glyph glyph-name="" unicode="&#x43c;" d="M668 448 q11 -23 21.5 -47.5 q10.5 -24.5 19.5 -49.5 q17 51 40 97 l310 528 q13 24 31 32 q18 8 37 8 l143 0 l0 -1016 l-161 0 l0 673 q0 27 3.5 62 q3.5 35 9.5 65 l-352 -617 q-8 -15 -21 -24 q-13 -9 -30 -9 l-20 0 q-17 0 -30.5 9 q-13.5 9 -21.5 24 l-358 619 q5 -30 9 -65.5 q4 -35.5 4 -63.5 l0 -673 l-161 0 l0 1016 l143 0 q19 0 37 -8.5 q18 -8.5 31 -31.5 l316 -528 l0 0 Z" /><glyph glyph-name="" unicode="&#x43d;" d="M985 1013 l0 -1013 l-179 0 l0 474 l-486 0 l0 -474 l-179 0 l0 1013 l179 0 l0 -404 l486 0 l0 404 l179 0 Z" /><glyph glyph-name="" unicode="&#x45a;" d="M985 1013 l0 -397 l215 0 q105 0 176.5 -25 q71.5 -25 115.5 -67 q44 -42 63 -97 q19 -55 19 -114 q0 -68 -24.5 -125.5 q-24.5 -57.5 -71.5 -99 q-47 -41.5 -116 -65 q-69 -23.5 -158 -23.5 l-398 0 l0 474 l-486 0 l0 -474 l-179 0 l0 1013 l179 0 l0 -404 l486 0 l0 404 l179 0 ZM985 486 l0 -356 l218 0 q54 0 93.5 13.5 q39.5 13.5 66 38 q26.5 24.5 39.5 57.5 q13 33 13 72 q0 36 -11.5 67.5 q-11.5 31.5 -37 55.5 q-25.5 24 -66.5 38 q-41 14 -100 14 l-215 0 Z" /><glyph glyph-name="" unicode="&#x473;" d="M568 1029 q111 0 200 -37 q89 -37 152 -105 q63 -68 96.5 -164.5 q33.5 -96.5 33.5 -215.5 q0 -120 -33.5 -216 q-33.5 -96 -96.5 -164 q-63 -68 -152 -104.5 q-89 -36.5 -200 -36.5 q-112 0 -201.5 36.5 q-89.5 36.5 -152.5 104.5 q-63 68 -96.5 164 q-33.5 96 -33.5 216 q0 119 33.5 215.5 q33.5 96.5 96.5 164.5 q63 68 152.5 105 q89.5 37 201.5 37 ZM568 120 q140 0 218 86 q78 86 89 246 l-616 0 q11 -160 89.5 -246 q78.5 -86 219.5 -86 ZM568 895 q-139 0 -216.5 -84.5 q-77.5 -84.5 -91.5 -239.5 l614 0 q-14 155 -91.5 239.5 q-77.5 84.5 -214.5 84.5 Z" /><glyph glyph-name="" unicode="&#x43f;" d="M985 1013 l0 -1013 l-179 0 l0 877 l-486 0 l0 -877 l-179 0 l0 1013 l844 0 Z" /><glyph glyph-name="" unicode="&#x442;" d="M27 1013 l956 0 l0 -136 l-389 0 l0 -877 l-178 0 l0 877 l-389 0 l0 136 Z" /><glyph glyph-name="" unicode="&#x475;" d="M21 1013 l145 0 q22 0 36 -11 q14 -11 19 -26 l253 -652 q13 -38 22 -74.5 q9 -36.5 17 -73.5 q8 36 17.5 72.5 q9.5 36.5 20.5 75.5 l188 523 q18 55 41 90 q23 35 50.5 54 q27.5 19 59 26 q31.5 7 67.5 7 q51 0 68 -10 q17 -10 17 -18 l0 -99 l-29 0 q-44 0 -73 -19 q-29 -19 -45 -62 l-305 -816 l-160 0 l-409 1013 Z" /><glyph glyph-name="" unicode="&#x444;" d="M789 1433 l0 -405 q125 -6 225 -45 q100 -39 170 -106.5 q70 -67.5 107.5 -161 q37.5 -93.5 37.5 -208.5 q0 -115 -37.5 -208.5 q-37.5 -93.5 -107.5 -161 q-70 -67.5 -170 -106.5 q-100 -39 -225 -44 l0 -336 l-168 0 l0 336 q-125 5 -225 44 q-100 39 -170 106.5 q-70 67.5 -107.5 161 q-37.5 93.5 -37.5 208.5 q0 115 37.5 208.5 q37.5 93.5 107.5 161 q70 67.5 170 106.5 q100 39 225 45 l0 405 l168 0 ZM1150 506 q0 86 -23.5 156 q-23.5 70 -70 120 q-46.5 50 -115 78.5 q-68.5 28.5 -158.5 33.5 l0 -764 l1 -9 q89 4 157.5 33 q68.5 29 115 78.5 q46.5 49.5 70 118.5 q23.5 69 23.5 155 ZM260 506 q0 -86 23.5 -155 q23.5 -69 69.5 -118.5 q46 -49.5 114 -78.5 q68 -29 158 -33 l1 6 l0 767 q-90 -5 -158 -34 q-68 -29 -114.5 -79 q-46.5 -50 -70 -119.5 q-23.5 -69.5 -23.5 -155.5 Z" /><glyph glyph-name="" unicode="&#x446;" d="M141 1013 l179 0 l0 -878 l486 0 l0 878 l179 0 l0 -878 l185 0 l0 -429 q0 -26 -14.5 -40.5 q-14.5 -14.5 -37.5 -14.5 l-109 0 l0 349 l-868 0 l0 1013 Z" /><glyph glyph-name="" unicode="&#x45f;" d="M141 1013 l179 0 l0 -878 l486 0 l0 878 l179 0 l0 -1013 l-341 0 l0 -294 q0 -26 -14.5 -40.5 q-14.5 -14.5 -37.5 -14.5 l-110 0 l0 349 l-341 0 l0 1013 Z" /><glyph glyph-name="" unicode="&#x447;" d="M888 0 l-178 0 l0 430 q-131 -34 -245.5 -43 q-114.5 -9 -199.5 17.5 q-85 26.5 -134.5 92 q-49.5 65.5 -49.5 181.5 l0 335 l179 0 l0 -308 q0 -73 29.5 -115 q29.5 -42 86.5 -58.5 q57 -16.5 141 -9.5 q84 7 193 33 l0 458 l178 0 l0 -1013 Z" /><glyph glyph-name="" unicode="&#x448;" d="M141 1013 l179 0 l0 -878 l413 0 l0 878 l179 0 l0 -878 l413 0 l0 878 l179 0 l0 -1013 l-1363 0 l0 1013 Z" /><glyph glyph-name="" unicode="&#x449;" d="M141 1013 l179 0 l0 -878 l413 0 l0 878 l179 0 l0 -878 l413 0 l0 878 l179 0 l0 -878 l186 0 l0 -429 q0 -26 -14.5 -40.5 q-14.5 -14.5 -37.5 -14.5 l-110 0 l0 349 l-1387 0 l0 1013 Z" /><glyph glyph-name="" unicode="&#x44a;" d="M28 1013 l494 0 l0 -397 l215 0 q105 0 176.5 -25 q71.5 -25 115.5 -67 q44 -42 63 -97 q19 -55 19 -114 q0 -68 -24 -125.5 q-24 -57.5 -71 -99 q-47 -41.5 -116 -65 q-69 -23.5 -159 -23.5 l-389 0 l0 875 l-324 0 l0 138 ZM522 486 l0 -356 l218 0 q54 0 93.5 13.5 q39.5 13.5 66 38 q26.5 24.5 39.5 57.5 q13 33 13 72 q0 36 -11.5 67.5 q-11.5 31.5 -37 55.5 q-25.5 24 -66 38 q-40.5 14 -99.5 14 l-216 0 Z" /><glyph glyph-name="" unicode="&#x44b;" d="M311 1013 l0 -397 l216 0 q105 0 176.5 -25 q71.5 -25 115 -67 q43.5 -42 62.5 -97 q19 -55 19 -114 q0 -68 -24 -125.5 q-24 -57.5 -71 -99 q-47 -41.5 -116 -65 q-69 -23.5 -159 -23.5 l-389 0 l0 1013 l170 0 ZM1301 1013 l0 -1013 l-178 0 l0 1013 l178 0 ZM311 486 l0 -356 l219 0 q54 0 93.5 13.5 q39.5 13.5 65.5 38 q26 24.5 39 57.5 q13 33 13 72 q0 36 -11 67.5 q-11 31.5 -36.5 55.5 q-25.5 24 -66.5 38 q-41 14 -100 14 l-216 0 Z" /><glyph glyph-name="" unicode="&#x44c;" d="M312 1013 l0 -397 l215 0 q105 0 176.5 -25 q71.5 -25 115 -67 q43.5 -42 62.5 -97 q19 -55 19 -114 q0 -68 -24 -125.5 q-24 -57.5 -71 -99 q-47 -41.5 -116 -65 q-69 -23.5 -159 -23.5 l-389 0 l0 1013 l171 0 ZM312 486 l0 -356 l218 0 q54 0 93.5 13.5 q39.5 13.5 65.5 38 q26 24.5 39 57.5 q13 33 13 72 q0 36 -11 67.5 q-11 31.5 -36.5 55.5 q-25.5 24 -66.5 38 q-41 14 -100 14 l-215 0 Z" /><glyph glyph-name="" unicode="&#x44d;" d="M71 897 q63 63 145 97.5 q82 34.5 188 34.5 q115 0 204 -39 q89 -39 149.5 -108.5 q60.5 -69.5 92 -165.5 q31.5 -96 31.5 -209 q0 -124 -34.5 -221 q-34.5 -97 -94.5 -163.5 q-60 -66.5 -141.5 -101.5 q-81.5 -35 -176.5 -35 q-110 0 -209 37.5 q-99 37.5 -165 118.5 l47 59 q12 17 34 17 q18 0 37 -14.5 q19 -14.5 47.5 -32.5 q28.5 -18 70.5 -32.5 q42 -14.5 107 -14.5 q63 0 115 22 q52 22 91 64 q39 42 63 103.5 q24 61.5 30 141.5 l-480 0 l0 124 l478 0 q-8 72 -32 130 q-24 58 -62.5 98 q-38.5 40 -92 61.5 q-53.5 21.5 -119.5 21.5 q-56 0 -95 -11.5 q-39 -11.5 -66 -25.5 q-27 -14 -45.5 -25.5 q-18.5 -11.5 -33.5 -11.5 q-14 0 -22 5.5 q-8 5.5 -16 16.5 l-45 59 Z" /><glyph glyph-name="" unicode="&#x454;" d="M848 838 q-8 -11 -16 -16.5 q-8 -5.5 -22 -5.5 q-15 0 -33 11.5 q-18 11.5 -45 25.5 q-27 14 -66 25.5 q-39 11.5 -95 11.5 q-67 0 -120 -21.5 q-53 -21.5 -92 -61.5 q-39 -40 -62.5 -98 q-23.5 -58 -31.5 -130 l478 0 l0 -124 l-480 0 q6 -80 30 -141.5 q24 -61.5 63 -103.5 q39 -42 91 -64 q52 -22 115 -22 q65 0 107 14.5 q42 14.5 70.5 32.5 q28.5 18 47 32.5 q18.5 14.5 36.5 14.5 q23 0 34 -17 l48 -59 q-33 -41 -75 -70 q-42 -29 -90.5 -48.5 q-48.5 -19.5 -101.5 -28.5 q-53 -9 -108 -9 q-95 0 -176.5 35 q-81.5 35 -141.5 101.5 q-60 66.5 -94 163.5 q-34 97 -34 221 q0 113 31.5 209 q31.5 96 92 165.5 q60.5 69.5 149 108.5 q88.5 39 203.5 39 q107 0 188.5 -34.5 q81.5 -34.5 144.5 -97.5 l-45 -59 Z" /><glyph glyph-name="" unicode="&#x44e;" d="M320 1013 l0 -437 l246 0 q9 104 43.5 188 q34.5 84 93 143 q58.5 59 138 90.5 q79.5 31.5 178.5 31.5 q106 0 191.5 -37 q85.5 -37 145.5 -105 q60 -68 92.5 -164.5 q32.5 -96.5 32.5 -215.5 q0 -120 -33 -216 q-33 -96 -94 -164 q-61 -68 -146 -104.5 q-85 -36.5 -189 -36.5 q-101 0 -181.5 32 q-80.5 32 -138.5 91.5 q-58 59.5 -92 144.5 q-34 85 -42 192 l-245 0 l0 -446 l-179 0 l0 1013 l179 0 ZM1019 125 q140 0 209 100.5 q69 100.5 69 280.5 q0 181 -69 282 q-69 101 -209 101 q-140 0 -209 -101 q-69 -101 -69 -282 q0 -180 69 -280.5 q69 -100.5 209 -100.5 Z" /><glyph glyph-name="" unicode="&#x44f;" d="M844 0 l-170 0 l0 427 l-78 0 q-28 0 -46.5 -4.5 q-18.5 -4.5 -32 -12.5 q-13.5 -8 -23.5 -20.5 q-10 -12.5 -21 -28.5 l-222 -299 q-17 -32 -41.5 -47 q-24.5 -15 -71.5 -15 l-124 0 l294 382 q35 58 95 80 q-77 10 -130 35.5 q-53 25.5 -86.5 61.5 q-33.5 36 -48.5 79 q-15 43 -15 87 q0 52 20.5 104 q20.5 52 65.5 92.5 q45 40.5 116.5 66 q71.5 25.5 173.5 25.5 l345 0 l0 -1013 ZM302 715 q0 -82 60 -128.5 q60 -46.5 164 -46.5 l148 0 l0 353 l-170 0 q-57 0 -96 -16.5 q-39 -16.5 -62.5 -42 q-23.5 -25.5 -33.5 -57 q-10 -31.5 -10 -62.5 Z" /><glyph glyph-name="" unicode="&#x452;" d="M-41 1237 l182 0 l0 236 l178 0 l0 -236 l352 0 l0 -138 l-352 0 l0 -307 q65 69 144 110 q79 41 182 41 q180 0 268.5 -115.5 q88.5 -115.5 88.5 -327.5 q0 -225 -68.5 -432.5 q-68.5 -207.5 -191.5 -399.5 l-144 57 q53 90 95 180 q42 90 71 185 q29 95 44 196 q15 101 15 214 q0 153 -61.5 227.5 q-61.5 74.5 -168.5 74.5 q-79 0 -147.5 -38 q-68.5 -38 -126.5 -104 l0 -660 l-178 0 l0 1099 l-182 0 l0 138 Z" /><glyph glyph-name="" unicode="&#x463;" d="M467 1296 l0 -285 l324 0 l0 -137 l-324 0 l0 -258 l235 0 q105 0 176.5 -25 q71.5 -25 115.5 -67 q44 -42 63 -97 q19 -55 19 -114 q0 -68 -24.5 -125.5 q-24.5 -57.5 -71.5 -99 q-47 -41.5 -116 -65 q-69 -23.5 -158 -23.5 l-409 0 l0 874 l-267 0 l0 137 l267 0 l0 285 l170 0 ZM467 486 l0 -356 l238 0 q54 0 93.5 13.5 q39.5 13.5 66 38 q26.5 24.5 39.5 57.5 q13 33 13 72 q0 36 -11.5 67.5 q-11.5 31.5 -37 55.5 q-25.5 24 -66 38 q-40.5 14 -99.5 14 l-236 0 Z" /><glyph glyph-name="" unicode="&#x203d;" d="M382 1405 q32 11 73.5 17.5 q41.5 6.5 84.5 6.5 q76 0 140 -20 q64 -20 110.5 -58 q46.5 -38 72.5 -94 q26 -56 26 -129 q0 -80 -28.5 -134 q-28.5 -54 -72 -93 q-43.5 -39 -94.5 -66.5 q-51 -27.5 -96 -54 q-45 -26.5 -77.5 -56.5 q-32.5 -30 -37.5 -72 l3 -171 l-111 0 q-27 74 -53 154 q-26 80 -49 158 l-181 618 l165 42 l138 -533 q5 -19 13.5 -53.5 q8.5 -34.5 16.5 -76.5 q23 31 54.5 55.5 q31.5 24.5 65 47 q33.5 22.5 66 44 q32.5 21.5 58 47 q25.5 25.5 41 56.5 q15.5 31 15.5 71 q0 36 -13.5 67 q-13.5 31 -39 54.5 q-25.5 23.5 -61.5 36.5 q-36 13 -81 13 q-30 0 -51.5 -4.5 q-21.5 -4.5 -29.5 -4.5 q-20 0 -30 7.5 q-10 7.5 -13 23.5 l-24 101 ZM299 110 q0 26 9.5 49 q9.5 23 26 40 q16.5 17 39.5 27 q23 10 49 10 q26 0 49 -10 q23 -10 40 -27 q17 -17 27 -40 q10 -23 10 -49 q0 -27 -10 -49.5 q-10 -22.5 -27 -39.5 q-17 -17 -40 -26.5 q-23 -9.5 -49 -9.5 q-26 0 -49 9.5 q-23 9.5 -39.5 26.5 q-16.5 17 -26 39.5 q-9.5 22.5 -9.5 49.5 Z" /><glyph glyph-name="" unicode="¦" d="M184 1533 l139 0 l0 -794 l-139 0 l0 794 ZM184 452 l139 0 l0 -795 l-139 0 l0 795 Z" /><glyph glyph-name="" unicode="&#x2117;" d="M101 716 q0 101 26 194.5 q26 93.5 74 175 q48 81.5 114.5 148 q66.5 66.5 147.5 114.5 q81 48 174 74 q93 26 194 26 q101 0 194.5 -26 q93.5 -26 174.5 -74 q81 -48 148 -114.5 q67 -66.5 114.5 -148 q47.5 -81.5 73.5 -175 q26 -93.5 26 -194.5 q0 -100 -26 -193.5 q-26 -93.5 -73.5 -174.5 q-47.5 -81 -114.5 -147.5 q-67 -66.5 -148 -114.5 q-81 -48 -174.5 -74 q-93.5 -26 -194.5 -26 q-101 0 -194 26 q-93 26 -174 74 q-81 48 -147.5 114.5 q-66.5 66.5 -114.5 147.5 q-48 81 -74 174 q-26 93 -26 194 ZM202 716 q0 -89 22 -171 q22 -82 62.5 -153.5 q40.5 -71.5 98 -129.5 q57.5 -58 127 -99.5 q69.5 -41.5 150.5 -64 q81 -22.5 169 -22.5 q88 0 169.5 22.5 q81.5 22.5 152 64 q70.5 41.5 128 99.5 q57.5 58 98.5 129.5 q41 71.5 63.5 153.5 q22.5 82 22.5 171 q0 134 -49.5 251.5 q-49.5 117.5 -135 205 q-85.5 87.5 -201.5 138 q-116 50.5 -248 50.5 q-88 0 -169 -23 q-81 -23 -150.5 -64.5 q-69.5 -41.5 -127 -100.5 q-57.5 -59 -98 -130.5 q-40.5 -71.5 -62.5 -154.5 q-22 -83 -22 -172 ZM718 592 l0 -320 l-156 0 l0 892 l287 0 q89 0 154.5 -21.5 q65.5 -21.5 108 -59.5 q42.5 -38 63.5 -90 q21 -52 21 -113 q0 -58 -21 -110.5 q-21 -52.5 -64 -92 q-43 -39.5 -109.5 -62.5 q-66.5 -23 -157.5 -23 l-126 0 ZM718 705 l115 0 q61 0 101.5 13 q40.5 13 64.5 36.5 q24 23.5 34 55.5 q10 32 10 70 q0 37 -9.5 67.5 q-9.5 30.5 -32 52 q-22.5 21.5 -60 33 q-37.5 11.5 -92.5 11.5 l-131 0 l0 -339 Z" /><glyph glyph-name="" unicode="&#x2120;" d="M975 1109 q6 -14 10.5 -26.5 q4.5 -12.5 9.5 -26.5 q7 25 21 53 l169 303 q10 13 18 17 q8 4 24 4 l106 0 l0 -592 l-110 0 l0 365 l9 76 l-184 -337 q-12 -28 -43 -28 l-18 0 q-31 0 -44 28 l-183 333 l8 -72 l0 -365 l-110 0 l0 592 l105 0 q17 0 24.5 -4 q7.5 -4 18.5 -17 l169 -303 ZM501 1327 q-10 -17 -27 -17 q-9 0 -19 6 q-10 6 -24.5 13.5 q-14.5 7.5 -34.5 14 q-20 6.5 -47 6.5 q-40 0 -64 -19.5 q-24 -19.5 -24 -50.5 q0 -25 20 -39.5 q20 -14.5 50.5 -25 q30.5 -10.5 65.5 -22 q35 -11.5 65.5 -30.5 q30.5 -19 50.5 -50.5 q20 -31.5 20 -81.5 q0 -41 -14 -76 q-14 -35 -40.5 -61.5 q-26.5 -26.5 -65 -41.5 q-38.5 -15 -88.5 -15 q-57 0 -109.5 21.5 q-52.5 21.5 -87.5 56.5 l30 56 q5 7 12 11.5 q7 4.5 15 4.5 q10 0 22 -8.5 q12 -8.5 28.5 -18.5 q16.5 -10 39 -18.5 q22.5 -8.5 54.5 -8.5 q48 0 71.5 24 q23.5 24 23.5 59 q0 29 -20 44.5 q-20 15.5 -50.5 26.5 q-30.5 11 -66 21 q-35.5 10 -66 29 q-30.5 19 -50.5 51.5 q-20 32.5 -20 86.5 q0 33 13 64 q13 31 38.5 54.5 q25.5 23.5 62 38 q36.5 14.5 84.5 14.5 q52 0 97.5 -16.5 q45.5 -16.5 76.5 -45.5 l-22 -57 Z" /><glyph glyph-name="" unicode="¤" d="M223 672 q0 57 16.5 107.5 q16.5 50.5 45.5 94.5 l-153 153 l91 90 l151 -152 q44 31 96 48 q52 17 110 17 q57 0 108 -16.5 q51 -16.5 94 -46.5 l153 153 l89 -91 l-151 -152 q31 -44 48 -95.5 q17 -51.5 17 -109.5 q0 -57 -16.5 -108 q-16.5 -51 -45.5 -94 l152 -151 l-91 -92 l-152 152 q-44 -30 -96 -47 q-52 -17 -109 -17 q-57 0 -107.5 16.5 q-50.5 16.5 -94.5 45.5 l-153 -153 l-89 91 l151 152 q-30 44 -47 95.5 q-17 51.5 -17 109.5 ZM355 672 q0 -46 17.5 -86.5 q17.5 -40.5 48.5 -71 q31 -30.5 71.5 -48.5 q40.5 -18 87.5 -18 q47 0 88.5 18 q41.5 18 72 48.5 q30.5 30.5 48.5 71 q18 40.5 18 86.5 q0 47 -18 88 q-18 41 -48.5 72 q-30.5 31 -72 48.5 q-41.5 17.5 -88.5 17.5 q-47 0 -87.5 -17.5 q-40.5 -17.5 -71.5 -48.5 q-31 -31 -48.5 -72 q-17.5 -41 -17.5 -88 Z" /><glyph glyph-name="" unicode="&#x2105;" d="M1233 1403 q9 12 22.5 21 q13.5 9 37.5 9 l129 0 l-1048 -1404 q-9 -13 -23 -21 q-14 -8 -34 -8 l-132 0 l1048 1403 ZM602 890 q11 0 19 -9 l55 -60 q-45 -55 -109.5 -84 q-64.5 -29 -155.5 -29 q-81 0 -146 27.5 q-65 27.5 -111 77 q-46 49.5 -70.5 118 q-24.5 68.5 -24.5 149.5 q0 82 26.5 150.5 q26.5 68.5 74 118 q47.5 49.5 114 77 q66.5 27.5 146.5 27.5 q80 0 141.5 -26.5 q61.5 -26.5 104.5 -68.5 l-46 -65 q-4 -7 -10.5 -11.5 q-6.5 -4.5 -17.5 -4.5 q-11 0 -23.5 9 q-12.5 9 -31 19.5 q-18.5 10.5 -47 19.5 q-28.5 9 -71.5 9 q-48 0 -88.5 -17 q-40.5 -17 -69.5 -49.5 q-29 -32.5 -45 -80 q-16 -47.5 -16 -107.5 q0 -60 17 -107.5 q17 -47.5 47 -80 q30 -32.5 70 -49.5 q40 -17 86 -17 q55 0 90.5 12.5 q35.5 12.5 68.5 41.5 q12 10 23 10 ZM1609 357 q0 -80 -26.5 -148 q-26.5 -68 -75.5 -118 q-49 -50 -117 -78.5 q-68 -28.5 -151 -28.5 q-83 0 -151 28.5 q-68 28.5 -117 78.5 q-49 50 -75.5 118 q-26.5 68 -26.5 148 q0 80 26.5 148.5 q26.5 68.5 75.5 118.5 q49 50 117 78 q68 28 151 28 q83 0 151 -28 q68 -28 117 -78 q49 -50 75.5 -118.5 q26.5 -68.5 26.5 -148.5 ZM1468 357 q0 119 -61 186.5 q-61 67.5 -168 67.5 q-53 0 -95.5 -17.5 q-42.5 -17.5 -72.5 -50.5 q-30 -33 -46 -80 q-16 -47 -16 -106 q0 -59 16 -106 q16 -47 46 -79.5 q30 -32.5 72.5 -50 q42.5 -17.5 95.5 -17.5 q107 0 168 67 q61 67 61 186 Z" /><glyph glyph-name="" unicode="&#x2116;" d="M305 1433 q26 0 38.5 -6.5 q12.5 -6.5 28.5 -26.5 l830 -1081 q-2 26 -3.5 51 q-1.5 25 -1.5 48 l0 1015 l170 0 l0 -1433 l-98 0 q-23 0 -38.5 8 q-15.5 8 -29.5 27 l-830 1078 q2 -24 3.5 -48 q1.5 -24 1.5 -44 l0 -1021 l-170 0 l0 1433 l99 0 ZM2211 1121 q0 -71 -23.5 -131 q-23.5 -60 -66.5 -103.5 q-43 -43.5 -103.5 -68.5 q-60.5 -25 -133.5 -25 q-73 0 -133 25 q-60 25 -102.5 68.5 q-42.5 43.5 -66 103.5 q-23.5 60 -23.5 131 q0 70 23.5 130.5 q23.5 60.5 66 104 q42.5 43.5 102.5 68.5 q60 25 133 25 q73 0 133.5 -25 q60.5 -25 103.5 -68.5 q43 -43.5 66.5 -104 q23.5 -60.5 23.5 -130.5 ZM2071 1122 q0 98 -50 153 q-50 55 -138 55 q-86 0 -136.5 -55 q-50.5 -55 -50.5 -153 q0 -97 50.5 -151.5 q50.5 -54.5 136.5 -54.5 q88 0 138 54.5 q50 54.5 50 151.5 ZM1561 666 l644 0 l0 -129 l-644 0 l0 129 Z" /><glyph glyph-name="" unicode="&#x2080;" d="M607 138 q0 -96 -21.5 -166 q-21.5 -70 -58.5 -115.5 q-37 -45.5 -87.5 -68 q-50.5 -22.5 -107.5 -22.5 q-57 0 -106.5 22.5 q-49.5 22.5 -86 68 q-36.5 45.5 -57.5 115.5 q-21 70 -21 166 q0 96 21 166.5 q21 70.5 57.5 116 q36.5 45.5 86 68 q49.5 22.5 106.5 22.5 q57 0 107.5 -22.5 q50.5 -22.5 87.5 -68 q37 -45.5 58.5 -116 q21.5 -70.5 21.5 -166.5 ZM476 138 q0 79 -11 130.5 q-11 51.5 -30.5 82 q-19.5 30.5 -45.5 42.5 q-26 12 -57 12 q-31 0 -57 -12 q-26 -12 -44.5 -42.5 q-18.5 -30.5 -29 -82 q-10.5 -51.5 -10.5 -130.5 q0 -78 11.5 -129.5 q11.5 -51.5 30.5 -82 q19 -30.5 44.5 -42.5 q25.5 -12 54.5 -12 q29 0 55.5 12 q26.5 12 46 42.5 q19.5 30.5 31 82 q11.5 51.5 11.5 129.5 Z" /><glyph glyph-name="" unicode="&#x2081;" d="M159 -141 l147 0 l0 440 l4 43 l-107 -88 q-9 -7 -17.5 -8.5 q-8.5 -1.5 -16.5 0 q-8 1.5 -14.5 5.5 q-6.5 4 -9.5 8 l-39 56 l222 190 l108 0 l0 -646 l130 0 l0 -85 l-407 0 l0 85 Z" /><glyph glyph-name="" unicode="&#x2082;" d="M339 511 q52 0 94.5 -15 q42.5 -15 72.5 -42 q30 -27 46.5 -65.5 q16.5 -38.5 16.5 -85.5 q0 -40 -12.5 -74.5 q-12.5 -34.5 -33.5 -65.5 q-21 -31 -48 -60 q-27 -29 -57 -59 l-163 -165 q23 6 47 10 q24 4 45 4 l195 0 q20 0 31.5 -11 q11.5 -11 11.5 -31 l0 -77 l-511 0 l0 43 q0 13 5.5 27 q5.5 14 17.5 26 l221 219 q50 50 84.5 103 q34.5 53 34.5 107 q0 51 -30 78.5 q-30 27.5 -74 27.5 q-47 0 -75 -24 q-28 -24 -42 -66 q-10 -18 -23 -25 q-13 -7 -39 -3 l-71 12 q15 106 84 159 q69 53 172 53 Z" /><glyph glyph-name="" unicode="&#x2083;" d="M340 511 q51 0 92 -14.5 q41 -14.5 70.5 -40 q29.5 -25.5 45.5 -59.5 q16 -34 16 -74 q0 -128 -119 -173 q66 -19 100.5 -58 q34.5 -39 34.5 -101 q0 -55 -21 -97 q-21 -42 -55.5 -70.5 q-34.5 -28.5 -80 -43 q-45.5 -14.5 -93.5 -14.5 q-57 0 -99 12.5 q-42 12.5 -72.5 37 q-30.5 24.5 -52 60.5 q-21.5 36 -36.5 83 l55 24 q22 9 41.5 4.5 q19.5 -4.5 27.5 -21.5 q5 -10 13 -25.5 q8 -15.5 22.5 -30.5 q14.5 -15 37 -25.5 q22.5 -10.5 56.5 -10.5 q31 0 54.5 10 q23.5 10 39.5 25.5 q16 15.5 24 35.5 q8 20 8 41 q0 30 -8.5 51.5 q-8.5 21.5 -28 35.5 q-19.5 14 -52 21 q-32.5 7 -79.5 7 l0 87 q87 1 122.5 31 q35.5 30 35.5 82 q0 50 -29 76 q-29 26 -77 26 q-48 0 -76.5 -23.5 q-28.5 -23.5 -40.5 -63.5 q-10 -20 -21 -26.5 q-11 -6.5 -37 -2.5 l-67 12 q7 53 29 92.5 q22 39.5 54.5 66 q32.5 26.5 74.5 40 q42 13.5 91 13.5 Z" /><glyph glyph-name="" unicode="&#x2084;" d="M502 41 l109 0 l0 -65 q0 -11 -7 -18.5 q-7 -7.5 -19 -7.5 l-83 0 l0 -176 l-108 0 l0 176 l-306 0 q-19 0 -29 8 q-10 8 -13 20 l-10 57 l343 468 l123 0 l0 -462 ZM394 282 q0 19 1 41.5 q1 22.5 4 46.5 l-242 -329 l237 0 l0 241 Z" /><glyph glyph-name="" unicode="&#x2085;" d="M545 449 q0 -27 -17.5 -44.5 q-17.5 -17.5 -57.5 -17.5 l-198 0 l-27 -155 q44 10 90 10 q57 0 101 -16 q44 -16 73.5 -44.5 q29.5 -28.5 44.5 -68 q15 -39.5 15 -87.5 q0 -59 -20.5 -106.5 q-20.5 -47.5 -56.5 -82 q-36 -34.5 -86 -53 q-50 -18.5 -108 -18.5 q-69 0 -123 26 q-54 26 -91 61 l38 54 q13 18 33 18 q12 0 25 -8 q13 -8 30 -17 q17 -9 40 -17 q23 -8 55 -8 q27 0 51 8 q24 8 42.5 25 q18.5 17 29.5 43 q11 26 11 61 q0 59 -32.5 92 q-32.5 33 -98.5 33 q-26 0 -53 -5.5 q-27 -5.5 -54 -13.5 l-79 22 l62 363 l361 0 l0 -54 Z" /><glyph glyph-name="" unicode="&#x2086;" d="M330 268 q-20 -25 -41.5 -47 q-21.5 -22 -41.5 -45 q28 23 62.5 36 q34.5 13 74.5 13 q39 0 76.5 -13 q37.5 -13 67 -39 q29.5 -26 47.5 -66 q18 -40 18 -95 q0 -51 -18.5 -96 q-18.5 -45 -52.5 -78 q-34 -33 -81.5 -52.5 q-47.5 -19.5 -105.5 -19.5 q-59 0 -105.5 18.5 q-46.5 18.5 -79.5 52.5 q-33 34 -50.5 81 q-17.5 47 -17.5 104 q0 105 87 219 l173 232 q8 13 26 21.5 q18 8.5 41 8.5 l113 0 l-192 -235 ZM210 -2 q0 -58 34.5 -95.5 q34.5 -37.5 93.5 -37.5 q30 0 55 10 q25 10 42.5 27.5 q17.5 17.5 27.5 41.5 q10 24 10 52 q0 63 -34 98 q-34 35 -93 35 q-32 0 -57.5 -10.5 q-25.5 -10.5 -43 -28 q-17.5 -17.5 -26.5 -41.5 q-9 -24 -9 -51 Z" /><glyph glyph-name="" unicode="&#x2087;" d="M593 503 l0 -69 q0 -13 -3.5 -24 q-3.5 -11 -8.5 -22 l-280 -571 q-6 -15 -18 -29 q-12 -14 -43 -14 l-99 0 l282 548 q8 17 17.5 32.5 q9.5 15.5 20.5 28.5 l-344 0 q-11 0 -20.5 9.5 q-9.5 9.5 -9.5 21.5 l0 89 l506 0 Z" /><glyph glyph-name="" unicode="&#x2088;" d="M334 -234 q-56 0 -103 15 q-47 15 -80.5 43 q-33.5 28 -52 67.5 q-18.5 39.5 -18.5 87.5 q0 63 31.5 108 q31.5 45 97.5 67 q-52 22 -78 63.5 q-26 41.5 -26 98.5 q0 42 17 77.5 q17 35.5 47.5 61.5 q30.5 26 72.5 41 q42 15 92 15 q51 0 93 -15 q42 -15 72 -41 q30 -26 47 -61.5 q17 -35.5 17 -77.5 q0 -57 -26.5 -98.5 q-26.5 -41.5 -78.5 -63.5 q66 -22 98 -66.5 q32 -44.5 32 -108.5 q0 -48 -18.5 -87.5 q-18.5 -39.5 -52 -67.5 q-33.5 -28 -80 -43 q-46.5 -15 -103.5 -15 ZM334 -135 q62 0 93 33 q31 33 31 84 q0 33 -10 55.5 q-10 22.5 -27 37 q-17 14.5 -39.5 20.5 q-22.5 6 -47.5 6 q-25 0 -47 -6 q-22 -6 -39 -20.5 q-17 -14.5 -27 -37 q-10 -22.5 -10 -55.5 q0 -51 31 -84 q31 -33 92 -33 ZM334 201 q57 0 84 30.5 q27 30.5 27 81.5 q0 20 -7 38.5 q-7 18.5 -21 32.5 q-14 14 -35 22.5 q-21 8.5 -48 8.5 q-27 0 -47.5 -8.5 q-20.5 -8.5 -34 -22.5 q-13.5 -14 -20.5 -32.5 q-7 -18.5 -7 -38.5 q0 -51 26.5 -81.5 q26.5 -30.5 82.5 -30.5 Z" /><glyph glyph-name="" unicode="&#x2089;" d="M344 31 q15 20 30 37 q15 17 29 34 q-24 -14 -52.5 -20.5 q-28.5 -6.5 -58.5 -6.5 q-40 0 -77.5 14 q-37.5 14 -67 40.5 q-29.5 26.5 -47 65 q-17.5 38.5 -17.5 87.5 q0 44 18 85.5 q18 41.5 51 73.5 q33 32 79 51 q46 19 102 19 q56 0 100.5 -16.5 q44.5 -16.5 76 -47 q31.5 -30.5 48.5 -73.5 q17 -43 17 -96 q0 -74 -25 -132.5 q-25 -58.5 -71 -123.5 l-152 -219 q-9 -12 -26.5 -20.5 q-17.5 -8.5 -38.5 -8.5 l-116 0 l198 257 ZM457 288 q0 57 -34.5 90.5 q-34.5 33.5 -87.5 33.5 q-60 0 -93.5 -33 q-33.5 -33 -33.5 -89 q0 -61 32 -92 q32 -31 89 -31 q60 0 94 34.5 q34 34.5 34 86.5 Z" /><glyph glyph-name="" unicode="&#x208a;" d="M385 376 l0 -205 l195 0 l0 -96 l-195 0 l0 -207 l-103 0 l0 207 l-194 0 l0 96 l194 0 l0 205 l103 0 Z" /><glyph glyph-name="" unicode="&#x208b;" d="M110 171 l448 0 l0 -96 l-448 0 l0 96 Z" /><glyph glyph-name="" unicode="&#x208d;" d="M173 130 q0 -103 25 -203.5 q25 -100.5 71 -188.5 q11 -20 5.5 -31.5 q-5.5 -11.5 -16.5 -18.5 l-56 -35 q-75 116 -107 232.5 q-32 116.5 -32 244.5 q0 127 32 244 q32 117 107 232 l56 -34 q11 -8 16.5 -18.5 q5.5 -10.5 -5.5 -31.5 q-46 -88 -71 -188.5 q-25 -100.5 -25 -203.5 Z" /><glyph glyph-name="" unicode="&#x208e;" d="M162 130 q0 103 -25 203.5 q-25 100.5 -71 188.5 q-11 21 -5.5 31.5 q5.5 10.5 16.5 18.5 l57 34 q74 -115 106 -232 q32 -117 32 -244 q0 -128 -32 -244.5 q-32 -116.5 -106 -232.5 l-57 35 q-11 7 -16.5 18.5 q-5.5 11.5 5.5 31.5 q46 88 71 188.5 q25 100.5 25 203.5 Z" /><glyph glyph-name="" unicode="&#x2212;" d="M150 739 l860 0 l0 -135 l-860 0 l0 135 Z" /><glyph glyph-name="" unicode="×" d="M1020 1014 l-343 -343 l354 -354 l-95 -96 l-355 354 l-356 -356 l-95 96 l356 356 l-345 345 l95 96 l345 -346 l343 344 l96 -96 Z" /><glyph glyph-name="" unicode="&#x212e;" d="M363 728 l0 -128 q0 -95 36.5 -184.5 q36.5 -89.5 105.5 -158.5 q69 -69 168.5 -111 q99.5 -42 224.5 -42 q157 0 278 59.5 q121 59.5 212 182.5 l97 -70 q-48 -69 -109.5 -123.5 q-61.5 -54.5 -138.5 -92.5 q-77 -38 -171 -58 q-94 -20 -206 -20 q-173 0 -312.5 56.5 q-139.5 56.5 -237.5 154.5 q-98 98 -151 231.5 q-53 133.5 -53 286.5 q0 155 54 289.5 q54 134.5 151.5 233.5 q97.5 99 232.5 155.5 q135 56.5 297 56.5 q114 0 211.5 -26 q97.5 -26 177 -73.5 q79.5 -47.5 140.5 -114 q61 -66.5 102.5 -146 q41.5 -79.5 64 -170.5 q22.5 -91 24.5 -188 l-1198 0 ZM363 840 l962 0 l0 31 q0 99 -33.5 183.5 q-33.5 84.5 -95.5 146.5 q-62 62 -150 97 q-88 35 -197 35 q-107 0 -196 -36.5 q-89 -36.5 -153.5 -101 q-64.5 -64.5 -100.5 -152 q-36 -87.5 -36 -190.5 l0 -13 Z" /><glyph glyph-name="" unicode="&#x2113;" d="M64 616 q42 8 82 17.5 q40 9.5 80 20.5 q12 106 39 206 q27 100 66.5 188.5 q39.5 88.5 90 162 q50.5 73.5 111 127 q60.5 53.5 128.5 83 q68 29.5 142 29.5 q60 0 104.5 -21.5 q44.5 -21.5 73.5 -57.5 q29 -36 43 -84.5 q14 -48.5 14 -102.5 q0 -99 -46.5 -187.5 q-46.5 -88.5 -131.5 -164.5 q-85 -76 -205 -140 q-120 -64 -267 -114 q-1 -14 -1 -27 q0 -13 0 -27 q0 -112 9.5 -187 q9.5 -75 28 -120 q18.5 -45 45.5 -64 q27 -19 63 -19 q36 0 71.5 17 q35.5 17 68 48.5 q32.5 31.5 61 76 q28.5 44.5 51.5 100.5 l146 -36 q-24 -73 -66.5 -138 q-42.5 -65 -98.5 -113.5 q-56 -48.5 -124.5 -76.5 q-68.5 -28 -144.5 -28 q-65 0 -117 26.5 q-52 26.5 -88 87 q-36 60.5 -55.5 158.5 q-19.5 98 -19.5 240 l0 30 q-32 -8 -64.5 -15.5 q-32.5 -7.5 -66.5 -15.5 l-22 121 ZM778 1313 q-60 0 -119.5 -47 q-59.5 -47 -111 -128 q-51.5 -81 -90.5 -191 q-39 -110 -57 -236 q108 42 197 93.5 q89 51.5 153.5 110.5 q64.5 59 100 125 q35.5 66 35.5 135 q0 67 -29 102.5 q-29 35.5 -79 35.5 Z" /><glyph glyph-name="" unicode="&#x2190;" d="M108 642 l570 571 l61 -63 q20 -20 15.5 -40.5 q-4.5 -20.5 -21.5 -38.5 l-287 -285 q-47 -47 -86 -77 q50 6 105.5 10 q55.5 4 114.5 4 l1302 0 l0 -163 l-1302 0 q-59 0 -114.5 4 q-55.5 4 -105.5 10 q37 -28 86 -76 l289 -288 q18 -18 22 -38 q4 -20 -15 -40 l-62 -64 l-572 574 Z" /><glyph glyph-name="" unicode="&#x2192;" d="M1892 641 l-570 -570 l-61 63 q-20 20 -15.5 40 q4.5 20 21.5 38 l287 285 q23 24 44.5 43 q21.5 19 41.5 34 q-51 -7 -106.5 -10.5 q-55.5 -3.5 -113.5 -3.5 l-1302 0 l0 163 l1302 0 q59 0 114.5 -4 q55.5 -4 105.5 -11 q-20 16 -41 35 q-21 19 -45 43 l-289 287 q-18 18 -22 38 q-4 20 15 40 l62 64 l572 -574 Z" /><glyph glyph-name="" unicode="&#x2191;" d="M751 1548 l570 -570 l-63 -62 q-20 -20 -40 -15.5 q-20 4.5 -38 22.5 l-286 285 q-47 47 -77 86 q6 -50 10 -105.5 q4 -55.5 4 -114.5 l0 -1300 l-162 0 l0 1300 q0 59 4 114.5 q4 55.5 10 106.5 q-15 -20 -34 -41.5 q-19 -21.5 -42 -45.5 l-288 -287 q-18 -18 -38 -22.5 q-20 -4.5 -40 15.5 l-63 62 l573 572 Z" /><glyph glyph-name="" unicode="&#x2193;" d="M749 -342 l-570 571 l63 61 q20 20 40 16 q20 -4 38 -22 l286 -286 q23 -24 42.5 -45 q19.5 -21 34.5 -41 q-7 51 -10.5 106 q-3.5 55 -3.5 115 l0 1300 l162 0 l0 -1300 q0 -60 -4 -115.5 q-4 -55.5 -11 -106.5 q29 39 77 87 l289 288 q17 19 37.5 23 q20.5 4 40.5 -16 l63 -62 l-574 -573 Z" /><glyph glyph-name="" unicode="&#x2197;" d="M1359 1300 l0 -808 l-88 2 q-28 0 -39 17 q-11 17 -11 43 l0 404 q0 66 6 114 q-31 -40 -67 -81.5 q-36 -41.5 -78 -83.5 l-920 -919 l-114 115 l920 919 q42 42 83.5 78.5 q41.5 36.5 81.5 67.5 q-25 -4 -53.5 -5.5 q-28.5 -1.5 -61.5 -1.5 l-408 0 q-26 0 -42.5 11 q-16.5 11 -17.5 40 l-1 88 l810 0 Z" /><glyph glyph-name="" unicode="&#x2196;" d="M141 1300 l810 0 l-1 -88 q-1 -29 -17.5 -40 q-16.5 -11 -42.5 -11 l-408 0 q-34 0 -62.5 1.5 q-28.5 1.5 -52.5 5.5 q40 -31 81.5 -67.5 q41.5 -36.5 83.5 -78.5 l920 -919 l-114 -115 l-920 919 q-42 42 -78.5 83.5 q-36.5 41.5 -66.5 81.5 q6 -48 6 -114 l0 -404 q0 -26 -11 -43 q-11 -17 -39 -17 l-88 -2 l0 808 Z" /><glyph glyph-name="" unicode="&#x2198;" d="M1359 1 l-810 -1 l1 88 q1 29 17.5 40 q16.5 11 42.5 11 l408 0 q34 -1 62.5 -2.5 q28.5 -1.5 53.5 -5.5 q-40 31 -82 68 q-42 37 -84 79 l-920 920 l114 114 l920 -919 q42 -42 78 -83.5 q36 -41.5 67 -81.5 q-6 48 -6 115 l0 403 q0 26 11 43 q11 17 39 17 l88 2 l0 -807 Z" /><glyph glyph-name="" unicode="&#x2199;" d="M141 0 l0 807 l88 -1 q28 -1 39 -17.5 q11 -16.5 11 -42.5 l0 -404 q0 -66 -6 -115 q30 40 66.5 82 q36.5 42 78.5 84 l920 919 l114 -115 l-920 -919 q-42 -42 -84 -79 q-42 -37 -82 -68 q25 3 53.5 5 q28.5 2 62.5 2 l408 0 q26 1 42.5 -10.5 q16.5 -11.5 17.5 -39.5 l1 -89 l-810 1 Z" /><glyph glyph-name="" unicode="&#x2194;" d="M108 642 l570 571 l61 -63 q20 -20 15.5 -40.5 q-4.5 -20.5 -21.5 -38.5 l-287 -285 q-19 -19 -35.5 -34.5 q-16.5 -15.5 -32.5 -28.5 l1042 0 q59 0 114.5 -4 q55.5 -4 105.5 -11 q-20 16 -41 35 q-21 19 -45 43 l-289 287 q-18 18 -22 38 q-4 20 15 40 l62 64 l572 -574 l-570 -570 l-61 63 q-20 20 -15.5 40 q4.5 20 21.5 38 l287 285 q23 24 44.5 43 q21.5 19 41.5 34 q-51 -7 -106.5 -10.5 q-55.5 -3.5 -113.5 -3.5 l-1042 0 q32 -27 68 -62 l289 -288 q18 -18 22 -38 q4 -20 -15 -40 l-62 -64 l-572 574 Z" /><glyph glyph-name="" unicode="&#x2195;" d="M750 -342 l-570 571 l63 61 q20 20 40 16 q20 -4 38 -22 l286 -286 q18 -18 33 -34.5 q15 -16.5 29 -32.5 l0 1143 q0 59 4 114.5 q4 55.5 10 106.5 q-15 -20 -34 -41.5 q-19 -21.5 -42 -45.5 l-289 -287 q-18 -19 -38 -23 q-20 -4 -40 16 l-63 61 l574 573 l570 -570 l-63 -62 q-20 -20 -40 -15.5 q-20 4.5 -38 22.5 l-286 285 q-47 47 -77 86 q6 -50 10 -105.5 q4 -55.5 4 -114.5 l0 -1146 q24 31 63 70 l289 288 q17 19 37.5 23 q20.5 4 40.5 -16 l63 -62 l-574 -573 Z" /><glyph glyph-name="" unicode="&#x1a0;" d="M1507 716 q0 -161 -51 -295.5 q-51 -134.5 -144 -231.5 q-93 -97 -223.5 -150.5 q-130.5 -53.5 -288.5 -53.5 q-158 0 -288 53.5 q-130 53.5 -223 150.5 q-93 97 -144 231.5 q-51 134.5 -51 295.5 q0 161 51 295.5 q51 134.5 144 232 q93 97.5 223 151.5 q130 54 288 54 q164 0 296 -57 q132 -57 226 -160 q74 11 115 44.5 q41 33.5 41 81.5 q0 21 -7.5 35.5 q-7.5 14.5 -16 27.5 q-8.5 13 -16 28 q-7.5 15 -7.5 38 q0 86 107 86 l101 0 q7 -22 11 -50.5 q4 -28.5 4 -57.5 q0 -124 -69.5 -207 q-69.5 -83 -197.5 -111 q58 -89 89 -197.5 q31 -108.5 31 -233.5 ZM1308 716 q0 132 -36 237 q-36 105 -102 177.5 q-66 72.5 -160 111.5 q-94 39 -210 39 q-115 0 -209 -39 q-94 -39 -160.5 -111.5 q-66.5 -72.5 -102.5 -177.5 q-36 -105 -36 -237 q0 -132 36 -236.5 q36 -104.5 102.5 -177 q66.5 -72.5 160.5 -111 q94 -38.5 209 -38.5 q116 0 210 38.5 q94 38.5 160 111 q66 72.5 102 177 q36 104.5 36 236.5 Z" /><glyph glyph-name="" unicode="&#x1af;" d="M736 154 q89 0 159 30 q70 30 118.5 84 q48.5 54 74 129 q25.5 75 25.5 165 l0 871 l193 0 l0 -205 q48 0 86.5 10 q38.5 10 65.5 27.5 q27 17.5 41.5 41 q14.5 23.5 14.5 51.5 q0 21 -7 35.5 q-7 14.5 -16 27.5 q-9 13 -16 28 q-7 15 -7 38 q0 86 107 86 l100 0 q8 -22 11.5 -50.5 q3.5 -28.5 3.5 -57.5 q0 -75 -26 -135.5 q-26 -60.5 -75.5 -103.5 q-49.5 -43 -121 -66.5 q-71.5 -23.5 -161.5 -24.5 l0 -573 q0 -124 -39.5 -230 q-39.5 -106 -113 -183.5 q-73.5 -77.5 -179.5 -121.5 q-106 -44 -238 -44 q-132 0 -238 44 q-106 44 -180 121.5 q-74 77.5 -113.5 183.5 q-39.5 106 -39.5 230 l0 871 l193 0 l0 -870 q0 -90 25.5 -165 q25.5 -75 74 -129 q48.5 -54 119 -84.5 q70.5 -30.5 159.5 -30.5 Z" /><glyph glyph-name="" unicode="&#x1a1;" d="M568 1029 q126 0 222.5 -46.5 q96.5 -46.5 159.5 -131.5 q64 11 100 44.5 q36 33.5 36 80.5 q0 17 -7 28.5 q-7 11.5 -16 23 q-9 11.5 -16 25.5 q-7 14 -7 36 q0 38 24 58 q24 20 74 20 l92 0 q7 -20 10.5 -46.5 q3.5 -26.5 3.5 -54.5 q0 -115 -64 -191.5 q-64 -76.5 -185 -100.5 q26 -57 40.5 -123.5 q14.5 -66.5 14.5 -143.5 q0 -120 -33.5 -216 q-33.5 -96 -96.5 -164 q-63 -68 -152 -104.5 q-89 -36.5 -200 -36.5 q-112 0 -201.5 36.5 q-89.5 36.5 -152.5 104.5 q-63 68 -96.5 164 q-33.5 96 -33.5 216 q0 119 33.5 215.5 q33.5 96.5 96.5 164.5 q63 68 152.5 105 q89.5 37 201.5 37 ZM568 125 q150 0 224 100.5 q74 100.5 74 280.5 q0 181 -74 282 q-74 101 -224 101 q-76 0 -132.5 -26 q-56.5 -26 -94 -75 q-37.5 -49 -56 -120.5 q-18.5 -71.5 -18.5 -161.5 q0 -180 74.5 -280.5 q74.5 -100.5 226.5 -100.5 Z" /><glyph glyph-name="" unicode="&#x1b0;" d="M309 1013 l0 -646 q0 -115 52.5 -178 q52.5 -63 160.5 -63 q78 0 147 37 q69 37 127 103 l0 747 l178 0 l0 -166 q77 7 119.5 42.5 q42.5 35.5 42.5 86.5 q0 17 -7 28.5 q-7 11.5 -16 23 q-9 11.5 -16 25.5 q-7 14 -7 36 q0 38 24 58 q24 20 74 20 l93 0 q6 -20 9.5 -46.5 q3.5 -26.5 3.5 -54.5 q0 -65 -21.5 -118.5 q-21.5 -53.5 -62 -92.5 q-40.5 -39 -100.5 -62 q-60 -23 -136 -27 l0 -766 l-106 0 q-38 0 -48 37 l-14 109 q-66 -73 -148 -117.5 q-82 -44.5 -188 -44.5 q-83 0 -146.5 27.5 q-63.5 27.5 -106.5 77.5 q-43 50 -64.5 121 q-21.5 71 -21.5 157 l0 646 l178 0 Z" /><glyph glyph-name="" unicode="&#x20ab;" d="M559 1256 l242 0 l0 217 l179 0 l0 -217 l142 0 l0 -113 l-142 0 l0 -1143 l-107 0 q-38 0 -47 37 l-16 125 q-68 -82 -148.5 -129 q-80.5 -47 -187.5 -47 q-89 0 -161 34.5 q-72 34.5 -122.5 98 q-50.5 63.5 -77.5 154 q-27 90.5 -27 203.5 q0 118 30.5 215.5 q30.5 97.5 87.5 167.5 q57 70 138.5 108.5 q81.5 38.5 183.5 38.5 q93 0 158 -32 q65 -32 117 -89 l0 258 l-242 0 l0 113 ZM531 130 q87 0 151 39.5 q64 39.5 119 112.5 l0 466 q-49 66 -107.5 93 q-58.5 27 -127.5 27 q-143 0 -219.5 -98 q-76.5 -98 -76.5 -289 q0 -178 69 -264.5 q69 -86.5 192 -86.5 ZM98 -132 l986 0 l0 -113 l-986 0 l0 113 Z" /><glyph glyph-name="" unicode="&#x25cb;" d="M114 651 q0 113 43 213 q43 100 117.5 174.5 q74.5 74.5 174.5 117.5 q100 43 213 43 q113 0 213 -43 q100 -43 174.5 -117.5 q74.5 -74.5 117.5 -174.5 q43 -100 43 -213 q0 -113 -43 -213 q-43 -100 -117.5 -174.5 q-74.5 -74.5 -174.5 -117.5 q-100 -43 -213 -43 q-113 0 -213 43 q-100 43 -174.5 117.5 q-74.5 74.5 -117.5 174.5 q-43 100 -43 213 ZM273 651 q0 -81 30.5 -152 q30.5 -71 83 -124 q52.5 -53 123.5 -83.5 q71 -30.5 152 -30.5 q81 0 152.5 30.5 q71.5 30.5 124.5 83 q53 52.5 83.5 123.5 q30.5 71 30.5 152 q0 81 -30.5 152.5 q-30.5 71.5 -83.5 124.5 q-53 53 -124.5 83.5 q-71.5 30.5 -152.5 30.5 q-81 0 -152 -30.5 q-71 -30.5 -123.5 -83.5 q-52.5 -53 -83 -124 q-30.5 -71 -30.5 -152 Z" /><glyph glyph-name="" unicode="&#x25cc;" d="M606 1132 q0 24 17 41 q17 17 40 17 q24 0 41.5 -17 q17.5 -17 17.5 -41 q0 -24 -17.5 -41 q-17.5 -17 -41.5 -17 q-23 0 -40 17 q-17 17 -17 41 ZM789 1096 q0 23 17 40 q17 17 40 17 q24 0 41 -17 q17 -17 17 -40 q0 -24 -17 -41.5 q-17 -17.5 -41 -17.5 q-23 0 -40 17.5 q-17 17.5 -17 41.5 ZM945 993 q0 23 17 40 q17 17 41 17 q23 0 40.5 -17 q17.5 -17 17.5 -40 q0 -24 -17.5 -41.5 q-17.5 -17.5 -40.5 -17.5 q-24 0 -41 17.5 q-17 17.5 -17 41.5 ZM1047 837 q0 24 17 41 q17 17 40 17 q24 0 41 -17 q17 -17 17 -41 q0 -24 -17 -41 q-17 -17 -41 -17 q-23 0 -40 17 q-17 17 -17 41 ZM1089 651 q0 23 17 40 q17 17 40 17 q24 0 41 -17 q17 -17 17 -40 q0 -24 -17 -41.5 q-17 -17.5 -41 -17.5 q-23 0 -40 17.5 q-17 17.5 -17 41.5 ZM419 1096 q0 23 17 40 q17 17 41 17 q24 0 41 -17 q17 -17 17 -40 q0 -24 -17 -41.5 q-17 -17.5 -41 -17.5 q-24 0 -41 17.5 q-17 17.5 -17 41.5 ZM264 993 q0 23 17 40 q17 17 40 17 q24 0 41.5 -17 q17.5 -17 17.5 -40 q0 -24 -17.5 -41.5 q-17.5 -17.5 -41.5 -17.5 q-23 0 -40 17.5 q-17 17.5 -17 41.5 ZM161 837 q0 24 17 41 q17 17 41 17 q23 0 40.5 -17 q17.5 -17 17.5 -41 q0 -24 -17.5 -41 q-17.5 -17 -40.5 -17 q-24 0 -41 17 q-17 17 -17 41 ZM124 651 q0 23 17 40 q17 17 41 17 q24 0 41 -17 q17 -17 17 -40 q0 -24 -17 -41.5 q-17 -17.5 -41 -17.5 q-24 0 -41 17.5 q-17 17.5 -17 41.5 ZM1047 468 q0 23 17 40.5 q17 17.5 40 17.5 q24 0 41 -17.5 q17 -17.5 17 -40.5 q0 -24 -17 -41 q-17 -17 -41 -17 q-23 0 -40 17 q-17 17 -17 41 ZM161 468 q0 23 17 40.5 q17 17.5 41 17.5 q23 0 40.5 -17.5 q17.5 -17.5 17.5 -40.5 q0 -24 -17.5 -41 q-17.5 -17 -40.5 -17 q-24 0 -41 17 q-17 17 -17 41 ZM945 311 q0 24 17 41 q17 17 41 17 q23 0 40.5 -17 q17.5 -17 17.5 -41 q0 -23 -17.5 -40.5 q-17.5 -17.5 -40.5 -17.5 q-24 0 -41 17.5 q-17 17.5 -17 40.5 ZM264 311 q0 24 17 41 q17 17 40 17 q24 0 41.5 -17 q17.5 -17 17.5 -41 q0 -23 -17.5 -40.5 q-17.5 -17.5 -41.5 -17.5 q-23 0 -40 17.5 q-17 17.5 -17 40.5 ZM789 210 q0 24 17 41 q17 17 40 17 q24 0 41 -17 q17 -17 17 -41 q0 -24 -17 -41 q-17 -17 -41 -17 q-23 0 -40 17 q-17 17 -17 41 ZM419 210 q0 24 17 41 q17 17 41 17 q24 0 41 -17 q17 -17 17 -41 q0 -24 -17 -41 q-17 -17 -41 -17 q-24 0 -41 17 q-17 17 -17 41 ZM606 168 q0 24 17 41 q17 17 40 17 q24 0 41.5 -17 q17.5 -17 17.5 -41 q0 -24 -17.5 -41 q-17.5 -17 -41.5 -17 q-23 0 -40 17 q-17 17 -17 41 Z" /><glyph glyph-name="" unicode="&#x34f;" d="" /><glyph glyph-name="" unicode="&#x1dc2;" d="M-132 -87 q0 6 12.5 13 q12.5 7 30 13.5 q17.5 6.5 36.5 11 q19 4.5 32 4.5 q11 0 19.5 -3.5 q8.5 -3.5 18 -9.5 q9.5 -6 21.5 -13 q12 -7 31 -13 q33 -11 53 -28.5 q20 -17.5 20 -43.5 q0 -27 -20 -44 q-20 -17 -44.5 -27.5 q-24.5 -10.5 -44.5 -17.5 q-20 -7 -20 -14 q0 -7 16 -12 q16 -5 35 -14 q19 -9 35 -24 q16 -15 16 -40 q0 -26 -15.5 -39.5 q-15.5 -13.5 -33.5 -23 q-18 -9.5 -33.5 -17.5 q-15.5 -8 -15.5 -21 q0 -11 11 -20 q11 -9 27 -14 q2 0 2 -5 q0 -2 -1.5 -5 q-1.5 -3 -3.5 -3 q-36 6 -60 23.5 q-24 17.5 -24 43.5 q0 21 13.5 33.5 q13.5 12.5 30 20.5 q16.5 8 30.5 13.5 q14 5.5 14 11.5 q0 7 -19 13 q-19 6 -42.5 15 q-23.5 9 -42.5 24 q-19 15 -19 41 q0 26 19.5 42.5 q19.5 16.5 42.5 27.5 q23 11 42.5 18.5 q19.5 7.5 19.5 15.5 q0 8 -9 13 q-9 5 -23 5 q-11 0 -16.5 -2.5 q-5.5 -2.5 -10 -5 q-4.5 -2.5 -10 -4.5 q-5.5 -2 -16.5 -1 q-15 1 -33 7.5 q-18 6.5 -34 15.5 q-16 9 -26.5 19.5 q-10.5 10.5 -10.5 19.5 Z" /><glyph glyph-name="" unicode="&#x181;" d="M482 0 l0 1289 l-28 0 q-128 0 -186 -50 q-58 -50 -58 -141 q0 -26 5 -50.5 q5 -24.5 10 -40.5 q2 -10 2.5 -19.5 q0.5 -9.5 -2.5 -18 q-3 -8.5 -11 -15 q-8 -6.5 -22 -10.5 l-110 -24 q-17 46 -26.5 87.5 q-9.5 41.5 -9.5 92.5 q0 76 27 137.5 q27 61.5 79 105 q52 43.5 128 67 q76 23.5 174 23.5 l485 0 q132 0 227.5 -26 q95.5 -26 157 -74 q61.5 -48 91 -117.5 q29.5 -69.5 29.5 -156.5 q0 -53 -16.5 -102 q-16.5 -49 -50 -91 q-33.5 -42 -84 -75 q-50.5 -33 -118.5 -54 q157 -30 237.5 -112.5 q80.5 -82.5 80.5 -216.5 q0 -91 -34 -166 q-34 -75 -98.5 -129 q-64.5 -54 -158 -83.5 q-93.5 -29.5 -213.5 -29.5 l-507 0 ZM676 653 l0 -499 l310 0 q83 0 142.5 19 q59.5 19 98 53.5 q38.5 34.5 56.5 82 q18 47.5 18 104.5 q0 111 -78.5 175.5 q-78.5 64.5 -237.5 64.5 l-309 0 ZM676 791 l256 0 q82 0 142 18 q60 18 99.5 50 q39.5 32 58.5 77.5 q19 45.5 19 99.5 q0 126 -76 185 q-76 59 -236 59 l-263 0 l0 -489 Z" /><glyph glyph-name="" unicode="&#x184;" d="M462 907 l303 0 q133 0 232 -36 q99 -36 165 -97.5 q66 -61.5 99 -143 q33 -81.5 33 -172.5 q0 -98 -33 -181.5 q-33 -83.5 -98.5 -145 q-65.5 -61.5 -162 -96.5 q-96.5 -35 -223.5 -35 l-508 0 l0 945 l-213 137 l264 351 l142 0 l0 -526 ZM462 753 l0 -599 l312 0 q90 0 152.5 27 q62.5 27 101.5 70.5 q39 43.5 57 99 q18 55.5 18 112.5 q0 55 -19 107.5 q-19 52.5 -59.5 93 q-40.5 40.5 -103 65 q-62.5 24.5 -148.5 24.5 l-311 0 Z" /><glyph glyph-name="" unicode="&#x186;" d="M157 296 q17 0 34 -15 q37 -34 74.5 -58.5 q37.5 -24.5 81 -40.5 q43.5 -16 94.5 -23.5 q51 -7.5 116 -7.5 q105 0 195.5 38 q90.5 38 157 110.5 q66.5 72.5 105 177.5 q38.5 105 38.5 239 q0 132 -37 237 q-37 105 -103.5 178 q-66.5 73 -158.5 111.5 q-92 38.5 -203 38.5 q-92 0 -155 -19.5 q-63 -19.5 -105 -43.5 q-42 -24 -68 -43.5 q-26 -19.5 -44 -19.5 q-16 0 -25.5 6.5 q-9.5 6.5 -15.5 16.5 l-64 89 q89 84 206.5 133 q117.5 49 269.5 49 q156 0 285 -53.5 q129 -53.5 221.5 -150.5 q92.5 -97 143.5 -232 q51 -135 51 -297 q0 -162 -49 -297 q-49 -135 -138 -231.5 q-89 -96.5 -215 -150 q-126 -53.5 -280 -53.5 q-178 0 -303.5 57 q-125.5 57 -213.5 159 l77 83 q12 13 28 13 Z" /><glyph glyph-name="" unicode="&#x187;" d="M1273 1267 l-63 -89 q-7 -10 -16 -16.5 q-9 -6.5 -25 -6.5 q-18 0 -44 19.5 q-26 19.5 -68.5 43.5 q-42.5 24 -105.5 43.5 q-63 19.5 -155 19.5 q-111 0 -203 -38.5 q-92 -38.5 -158.5 -111.5 q-66.5 -73 -103.5 -178 q-37 -105 -37 -237 q0 -134 38.5 -239 q38.5 -105 105.5 -177.5 q67 -72.5 157.5 -110.5 q90.5 -38 195.5 -38 q64 0 115.5 7.5 q51.5 7.5 94.5 23.5 q43 16 80.5 40.5 q37.5 24.5 75.5 58.5 q17 15 33 15 q16 0 29 -13 l76 -83 q-88 -102 -213.5 -159 q-125.5 -57 -302.5 -57 q-155 0 -281 53.5 q-126 53.5 -215 150 q-89 96.5 -138 231.5 q-49 135 -49 297 q0 162 51 297 q51 135 143.5 232 q92.5 97 221.5 150.5 q129 53.5 285 53.5 q92 0 170.5 -18.5 q78.5 -18.5 146.5 -52.5 l0 40 q0 66 15.5 125 q15.5 59 50 104 q34.5 45 89.5 71.5 q55 26.5 135 26.5 q58 0 101 -9.5 q43 -9.5 89 -26.5 l-24 -100 q-4 -14 -10.5 -22 q-6.5 -8 -15 -11 q-8.5 -3 -18 -2.5 q-9.5 0.5 -18.5 2.5 q-20 6 -42 9 q-22 3 -44 3 q-77 0 -113 -55 q-36 -55 -36 -158 l0 -108 Z" /><glyph glyph-name="" unicode="&#x18a;" d="M1724 716 q0 -161 -51 -293 q-51 -132 -144 -226 q-93 -94 -223 -145.5 q-130 -51.5 -288 -51.5 l-536 0 l0 1289 l-28 0 q-128 0 -186 -50 q-58 -50 -58 -141 q0 -26 5 -50.5 q5 -24.5 10 -40.5 q2 -10 2.5 -19.5 q0.5 -9.5 -2.5 -18 q-3 -8.5 -11 -15 q-8 -6.5 -22 -10.5 l-110 -24 q-17 46 -26.5 87.5 q-9.5 41.5 -9.5 92.5 q0 76 27 137.5 q27 61.5 79 105 q52 43.5 128 67 q76 23.5 174 23.5 l564 0 q158 0 288 -51.5 q130 -51.5 223 -146 q93 -94.5 144 -226.5 q51 -132 51 -293 ZM1525 716 q0 132 -36 236 q-36 104 -102 176 q-66 72 -159.5 110 q-93.5 38 -209.5 38 l-341 0 l0 -1119 l341 0 q116 0 209.5 38 q93.5 38 159.5 109.5 q66 71.5 102 175.5 q36 104 36 236 Z" /><glyph glyph-name="" unicode="&#x18b;" d="M864 816 l0 464 l-733 0 l0 153 l926 0 l0 -1433 l-471 0 q-120 0 -214 30 q-94 30 -158.5 86 q-64.5 56 -98 135.5 q-33.5 79.5 -33.5 178.5 q0 84 29.5 155 q29.5 71 91 122.5 q61.5 51.5 156.5 80 q95 28.5 226 28.5 l279 0 ZM274 411 q0 -57 17.5 -104.5 q17.5 -47.5 55 -81 q37.5 -33.5 97 -52.5 q59.5 -19 142.5 -19 l278 0 l0 508 l-279 0 q-83 0 -142 -16.5 q-59 -16.5 -96.5 -49 q-37.5 -32.5 -55 -79 q-17.5 -46.5 -17.5 -106.5 Z" /><glyph glyph-name="" unicode="&#x18e;" d="M968 1433 l0 -1433 l-883 0 l-1 158 l689 0 l0 489 l-557 0 l0 152 l557 0 l0 476 l-688 0 l0 158 l883 0 Z" /><glyph glyph-name="" unicode="&#x18f;" d="M682 -14 q-128 0 -236.5 42.5 q-108.5 42.5 -188 123.5 q-79.5 81 -124.5 199.5 q-45 118.5 -45 270.5 q0 29 3 47.5 q3 18.5 10 29.5 q7 11 18.5 15.5 q11.5 4.5 28.5 4.5 l1000 0 q-3 139 -39 244 q-36 105 -100.5 175.5 q-64.5 70.5 -155.5 106.5 q-91 36 -205 36 q-66 0 -118.5 -10.5 q-52.5 -10.5 -94.5 -26.5 q-42 -16 -75 -34.5 q-33 -18.5 -59.5 -34.5 q-26.5 -16 -47 -26.5 q-20.5 -10.5 -37.5 -10.5 q-31 0 -47 23 l-58 72 q53 59 117 101 q64 42 135 68.5 q71 26.5 148.5 38.5 q77.5 12 157.5 12 q147 0 271.5 -50 q124.5 -50 215 -147 q90.5 -97 141.5 -239 q51 -142 51 -326 q0 -149 -45.5 -278 q-45.5 -129 -131.5 -224 q-86 -95 -209.5 -149 q-123.5 -54 -279.5 -54 ZM683 148 q100 0 179.5 31 q79.5 31 137.5 87.5 q58 56.5 94 137 q36 80.5 48 179.5 l-867 0 q0 -98 29.5 -178 q29.5 -80 83 -137 q53.5 -57 128.5 -88.5 q75 -31.5 167 -31.5 Z" /><glyph glyph-name="" unicode="&#x190;" d="M1058 1216 q-12 -22 -25 -27.5 q-13 -5.5 -24 -5.5 q-17 0 -42 16.5 q-25 16.5 -66 36 q-41 19.5 -103 36 q-62 16.5 -152 16.5 q-79 0 -137 -18.5 q-58 -18.5 -96.5 -49.5 q-38.5 -31 -57 -72 q-18.5 -41 -18.5 -87 q0 -54 24 -94.5 q24 -40.5 67 -68 q43 -27.5 103.5 -41.5 q60.5 -14 133.5 -14 l235 0 l0 -141 l-251 0 q-89 0 -154.5 -23 q-65.5 -23 -109 -61 q-43.5 -38 -65 -86.5 q-21.5 -48.5 -21.5 -98.5 q0 -60 24.5 -112 q24.5 -52 71.5 -90 q47 -38 115 -59.5 q68 -21.5 154 -21.5 q79 0 136 16.5 q57 16.5 96.5 39 q39.5 22.5 64 44.5 q24.5 22 38.5 33 q8 7 16 11.5 q8 4.5 17 4.5 q16 0 29 -13 l71 -83 q-44 -57 -101 -98 q-57 -41 -123 -67.5 q-66 -26.5 -140 -39.5 q-74 -13 -153 -13 q-102 0 -195 28.5 q-93 28.5 -164 83 q-71 54.5 -113 135 q-42 80.5 -42 184.5 q0 61 20 117 q20 56 57 103 q37 47 90 83.5 q53 36.5 119 60.5 q-70 19 -118.5 50 q-48.5 31 -78.5 69.5 q-30 38.5 -43.5 82.5 q-13.5 44 -13.5 89 q0 76 35 144.5 q35 68.5 101.5 120.5 q66.5 52 163 82.5 q96.5 30.5 218.5 30.5 q153 0 263 -43.5 q110 -43.5 188 -114.5 l-44 -75 Z" /><glyph glyph-name="" unicode="&#x191;" d="M183 1433 l883 0 l0 -158 l-689 0 l0 -501 l589 0 l0 -158 l-589 0 l0 -611 q0 -82 -19 -150 q-19 -68 -58.5 -117 q-39.5 -49 -99 -76 q-59.5 -27 -140.5 -27 q-32 0 -58 2.5 q-26 2.5 -49.5 7 q-23.5 4.5 -45.5 11 q-22 6.5 -45 15.5 l25 100 q7 28 24.5 32.5 q17.5 4.5 37.5 0.5 q19 -6 41.5 -9 q22.5 -3 43.5 -3 q78 0 113.5 55 q35.5 55 35.5 158 l0 1428 Z" /><glyph glyph-name="" unicode="&#x193;" d="M1334 1268 l-55 -88 q-13 -20 -33.5 -25.5 q-20.5 -5.5 -45.5 9.5 q-24 14 -55 34 q-31 20 -75.5 38.5 q-44.5 18.5 -105 31.5 q-60.5 13 -143.5 13 q-121 0 -219 -39.5 q-98 -39.5 -167 -113 q-69 -73.5 -106 -178 q-37 -104.5 -37 -234.5 q0 -136 38.5 -242.5 q38.5 -106.5 108 -180.5 q69.5 -74 166 -113 q96.5 -39 212.5 -39 q58 0 106.5 6 q48.5 6 91.5 16.5 q43 10.5 81 26 q38 15.5 76 35.5 l0 316 l-223 0 q-19 0 -30.5 11 q-11.5 11 -11.5 27 l0 110 l440 0 l0 -550 q-54 -39 -112 -68 q-58 -29 -124.5 -48.5 q-66.5 -19.5 -142.5 -29 q-76 -9.5 -165 -9.5 q-156 0 -286 53.5 q-130 53.5 -224 150 q-94 96.5 -146.5 231.5 q-52.5 135 -52.5 297 q0 164 51.5 299 q51.5 135 146.5 231.5 q95 96.5 231 149.5 q136 53 304 53 q106 0 191.5 -19 q85.5 -19 157.5 -54 q-1 10 -1 20.5 q0 10.5 0 21.5 q0 66 15 125 q15 59 49.5 104 q34.5 45 89.5 71.5 q55 26.5 135 26.5 q29 0 53.5 -2.5 q24.5 -2.5 47.5 -7 q23 -4.5 45 -11 q22 -6.5 45 -15.5 l-25 -100 q-3 -14 -9.5 -22 q-6.5 -8 -15 -11 q-8.5 -3 -18 -2.5 q-9.5 0.5 -19.5 2.5 q-19 6 -41.5 9 q-22.5 3 -43.5 3 q-78 0 -113.5 -55 q-35.5 -55 -35.5 -158 l0 -107 Z" /><glyph glyph-name="" unicode="&#x194;" d="M558 594 l-589 839 l187 0 q22 0 32 -7.5 q10 -7.5 21 -23.5 l471 -691 l461 691 q17 30 45 30 l185 0 l-584 -849 l418 -583 l-1069 0 l422 594 ZM667 482 q-8 -21 -17.5 -40.5 q-9.5 -19.5 -23.5 -36.5 l-165 -234 q-10 -13 -28 -23 l480 0 q-8 6 -16 13.5 q-8 7.5 -14 16.5 l-216 304 Z" /><glyph glyph-name="" unicode="&#x196;" d="M175 1433 l195 0 l0 -1129 q0 -86 36.5 -127 q36.5 -41 115.5 -41 l87 0 l0 -65 q0 -23 -12 -39 q-12 -16 -33.5 -26 q-21.5 -10 -51 -14 q-29.5 -4 -63.5 -4 q-67 0 -118 22.5 q-51 22.5 -85.5 63 q-34.5 40.5 -52.5 96.5 q-18 56 -18 124 l0 1139 Z" /><glyph glyph-name="" unicode="&#x198;" d="M376 805 l73 0 q38 0 63 9.5 q25 9.5 48 40.5 l280 409 q61 99 145 140.5 q84 41.5 197 41.5 q59 0 99 -8.5 q40 -8.5 71 -21.5 l-18 -98 q-3 -14 -9.5 -22 q-6.5 -8 -15 -11 q-8.5 -3 -18 -3 q-9.5 0 -18.5 2 q-16 5 -37.5 8 q-21.5 3 -43.5 3 q-57 0 -101.5 -24 q-44.5 -24 -75.5 -69 l-259 -370 q-19 -29 -41.5 -48.5 q-22.5 -19.5 -48.5 -30.5 q31 -10 55.5 -28.5 q24.5 -18.5 47.5 -49.5 l558 -675 l-168 0 q-19 0 -32.5 2.5 q-13.5 2.5 -23.5 8 q-10 5.5 -17.5 13 q-7.5 7.5 -14.5 17.5 l-482 564 q-11 13 -21.5 22.5 q-10.5 9.5 -24 16 q-13.5 6.5 -30.5 9.5 q-17 3 -41 3 l-96 0 l0 -656 l-193 0 l0 1433 l193 0 l0 -628 Z" /><glyph glyph-name="" unicode="&#x19c;" d="M1449 136 q107 0 194 76.5 q87 76.5 138 225.5 l0 995 l195 0 l0 -1430 l-99 0 q-52 0 -64 51 l-21 184 q-33 -58 -72.5 -105 q-39.5 -47 -87 -80 q-47.5 -33 -103.5 -50.5 q-56 -17.5 -120 -17.5 q-140 0 -231.5 73 q-91.5 73 -134.5 199 q-31 -72 -77.5 -123.5 q-46.5 -51.5 -102 -84.5 q-55.5 -33 -118 -48.5 q-62.5 -15.5 -124.5 -15.5 q-112 0 -197 35.5 q-85 35.5 -142 104 q-57 68.5 -85.5 168 q-28.5 99.5 -28.5 228.5 l0 912 l195 0 l0 -912 q0 -94 21 -166 q21 -72 60 -120.5 q39 -48.5 93.5 -73.5 q54.5 -25 121.5 -25 q67 0 124.5 24.5 q57.5 24.5 100 73 q42.5 48.5 66.5 120.5 q24 72 24 167 l0 912 l195 0 l0 -912 q0 -89 17.5 -160 q17.5 -71 52 -121 q34.5 -50 87 -77 q52.5 -27 123.5 -27 Z" /><glyph glyph-name="" unicode="&#x19d;" d="M183 1433 l100 0 q13 0 22 -1.5 q9 -1.5 16 -5 q7 -3.5 14 -10 q7 -6.5 15 -16.5 l829 -1079 q-2 26 -3.5 50.5 q-1.5 24.5 -1.5 46.5 l0 1015 l170 0 l0 -1433 l-97 0 q-23 0 -38.5 8 q-15.5 8 -30.5 27 l-829 1079 q2 -25 3 -49 q1 -24 1 -44 l0 -1047 q0 -82 -17 -150 q-17 -68 -53 -116.5 q-36 -48.5 -93 -75.5 q-57 -27 -137 -27 q-58 0 -101.5 9 q-43.5 9 -89.5 26 l25 100 q7 28 24.5 32.5 q17.5 4.5 37.5 0.5 q19 -6 41.5 -9 q22.5 -3 43.5 -3 q78 0 113.5 55 q35.5 55 35.5 158 l0 1459 Z" /><glyph glyph-name="" unicode="&#x19f;" d="M1507 716 q0 -161 -51 -295.5 q-51 -134.5 -144 -231.5 q-93 -97 -223.5 -150.5 q-130.5 -53.5 -288.5 -53.5 q-158 0 -288 53.5 q-130 53.5 -223 150.5 q-93 97 -144 231.5 q-51 134.5 -51 295.5 q0 161 51 295.5 q51 134.5 144 232 q93 97.5 223 151.5 q130 54 288 54 q158 0 288.5 -54 q130.5 -54 223.5 -151.5 q93 -97.5 144 -232 q51 -134.5 51 -295.5 ZM800 153 q109 0 198.5 34 q89.5 34 155 99 q65.5 65 105 158 q39.5 93 47.5 212 l-1012 0 q8 -119 47.5 -212 q39.5 -93 105.5 -158 q66 -65 155.5 -99 q89.5 -34 197.5 -34 ZM800 1281 q-105 0 -193 -32.5 q-88 -32.5 -153 -94 q-65 -61.5 -105.5 -150.5 q-40.5 -89 -52.5 -201 l1007 0 q-11 112 -51.5 201 q-40.5 89 -105.5 150.5 q-65 61.5 -152.5 94 q-87.5 32.5 -193.5 32.5 Z" /><glyph glyph-name="" unicode="&#x1a2;" d="M1825 -349 l-195 0 l0 1441 q0 41 -9.5 77 q-9.5 36 -29.5 62.5 q-20 26.5 -50.5 41.5 q-30.5 15 -71.5 15 q-55 0 -106 -26.5 q-51 -26.5 -96 -68.5 q67 -94 102.5 -214.5 q35.5 -120.5 35.5 -262.5 q0 -161 -46 -295.5 q-46 -134.5 -131 -231 q-85 -96.5 -206 -150 q-121 -53.5 -271 -53.5 q-150 0 -271 53.5 q-121 53.5 -206.5 150 q-85.5 96.5 -131.5 231 q-46 134.5 -46 295.5 q0 161 46 295.5 q46 134.5 131.5 232 q85.5 97.5 206.5 151.5 q121 54 271 54 q131 0 239 -41.5 q108 -41.5 191 -116.5 q67 70 148 113 q81 43 180 43 q78 0 137.5 -25 q59.5 -25 99 -71.5 q39.5 -46.5 59.5 -112 q20 -65.5 20 -146.5 l0 -1441 ZM751 148 q103 0 187 39 q84 39 144 112.5 q60 73.5 92.5 179 q32.5 105.5 32.5 237.5 q0 132 -32.5 237.5 q-32.5 105.5 -92.5 179.5 q-60 74 -144 113.5 q-84 39.5 -187 39.5 q-103 0 -187 -39.5 q-84 -39.5 -144 -113.5 q-60 -74 -93 -179.5 q-33 -105.5 -33 -237.5 q0 -132 33 -237.5 q33 -105.5 93 -179 q60 -73.5 144 -112.5 q84 -39 187 -39 Z" /><glyph glyph-name="" unicode="&#x1a4;" d="M676 536 l0 -536 l-194 0 l0 1289 l-28 0 q-128 0 -186 -50 q-58 -50 -58 -141 q0 -26 5 -50.5 q5 -24.5 10 -40.5 q2 -10 2.5 -19.5 q0.5 -9.5 -2.5 -18 q-3 -8.5 -11 -15 q-8 -6.5 -22 -10.5 l-110 -24 q-17 46 -26.5 87.5 q-9.5 41.5 -9.5 92.5 q0 76 27 137.5 q27 61.5 79 105 q52 43.5 128 67 q76 23.5 174 23.5 l451 0 q136 0 236.5 -31.5 q100.5 -31.5 167 -89.5 q66.5 -58 99 -140 q32.5 -82 32.5 -183 q0 -100 -35 -183 q-35 -83 -103 -143 q-68 -60 -167.5 -93.5 q-99.5 -33.5 -229.5 -33.5 l-229 0 ZM676 690 l229 0 q83 0 146.5 22 q63.5 22 107 61.5 q43.5 39.5 65.5 94.5 q22 55 22 121 q0 137 -84.5 214 q-84.5 77 -256.5 77 l-229 0 l0 -590 Z" /><glyph glyph-name="" unicode="&#x1a6;" d="M376 381 l0 -381 l-193 0 l0 1448 l193 0 l0 -233 l212 0 q136 0 235 -27.5 q99 -27.5 163.5 -79 q64.5 -51.5 95.5 -125 q31 -73.5 31 -164.5 q0 -77 -24 -143 q-24 -66 -69.5 -118.5 q-45.5 -52.5 -111 -89.5 q-65.5 -37 -148.5 -55 q36 -23 64 -62 l418 -568 l-172 0 q-53 0 -78 41 l-372 512 q-17 24 -36.5 34.5 q-19.5 10.5 -60.5 10.5 l-147 0 ZM376 522 l204 0 q84 0 148.5 20.5 q64.5 20.5 108 58 q43.5 37.5 65.5 89.5 q22 52 22 115 q0 128 -84 193 q-84 65 -252 65 l-212 0 l0 -541 Z" /><glyph glyph-name="" unicode="&#x1a7;" d="M126 1301 q74 72 173 110 q99 38 219 38 q106 0 189 -32 q83 -32 139 -86 q56 -54 85.5 -124 q29.5 -70 29.5 -146 q0 -94 -29.5 -158.5 q-29.5 -64.5 -78 -109.5 q-48.5 -45 -110.5 -74 q-62 -29 -127 -52.5 q-65 -23.5 -127 -46 q-62 -22.5 -110.5 -53 q-48.5 -30.5 -78 -74.5 q-29.5 -44 -29.5 -110 q0 -115 75 -176.5 q75 -61.5 207 -61.5 q82 0 140 22.5 q58 22.5 98.5 49.5 q40.5 27 67.5 49.5 q27 22.5 47 22.5 q14 0 26 -7.5 q12 -7.5 20 -18.5 l56 -92 q-81 -86 -195.5 -136.5 q-114.5 -50.5 -254.5 -50.5 q-114 0 -203.5 30.5 q-89.5 30.5 -151 85.5 q-61.5 55 -93.5 132.5 q-32 77.5 -32 170.5 q0 88 29.5 149.5 q29.5 61.5 78.5 105.5 q49 44 111 74 q62 30 127 54.5 q65 24.5 127 48 q62 23.5 111 54.5 q49 31 78.5 72.5 q29.5 41.5 29.5 103.5 q0 46 -16.5 86.5 q-16.5 40.5 -48.5 71 q-32 30.5 -79.5 48 q-47.5 17.5 -110.5 17.5 q-69 0 -117.5 -17 q-48.5 -17 -83 -37.5 q-34.5 -20.5 -57 -37.5 q-22.5 -17 -39.5 -17 q-16 0 -26 7.5 q-10 7.5 -19 22.5 l-47 92 Z" /><glyph glyph-name="" unicode="&#x1ac;" d="M456 1270 q-67 0 -113.5 -11 q-46.5 -11 -76 -32.5 q-29.5 -21.5 -42.5 -54.5 q-13 -33 -13 -76 q0 -25 5 -49 q5 -24 10 -40 q5 -20 0.5 -37.5 q-4.5 -17.5 -33.5 -25.5 l-110 -24 q-17 46 -26.5 87.5 q-9.5 41.5 -9.5 92.5 q0 76 27 137.5 q27 61.5 79 105 q52 43.5 128.5 67 q76.5 23.5 174.5 23.5 l851 0 l0 -163 l-464 0 l0 -1270 l-193 0 l0 1270 l-194 0 Z" /><glyph glyph-name="" unicode="&#x1ae;" d="M1152 1433 l0 -163 l-464 0 l0 -1321 q0 -98 38.5 -154 q38.5 -56 122.5 -56 q35 0 58.5 7.5 q23.5 7.5 36.5 7.5 q11 0 23 -6.5 q12 -6.5 18 -29.5 l19 -78 q-44 -18 -85 -26.5 q-41 -8.5 -91 -8.5 q-90 0 -153 26 q-63 26 -103 74 q-40 48 -58.5 115 q-18.5 67 -18.5 149 l0 1301 l-465 0 l0 163 l1122 0 Z" /><glyph glyph-name="" unicode="&#x1b1;" d="M808 -16 q-143 0 -269 48 q-126 48 -219.5 136 q-93.5 88 -148 211.5 q-54.5 123.5 -54.5 273.5 q0 115 32.5 216.5 q32.5 101.5 89.5 183 q57 81.5 135.5 141 q78.5 59.5 171.5 89.5 q-38 -6 -78 -9.5 q-40 -3.5 -77 -3.5 l-286 0 l0 100 q0 27 18 45 q18 18 48 18 l520 0 l0 -224 q-81 -15 -150.5 -64 q-69.5 -49 -121 -122.5 q-51.5 -73.5 -80.5 -167.5 q-29 -94 -29 -200 q0 -126 40.5 -220.5 q40.5 -94.5 109 -157 q68.5 -62.5 158.5 -94 q90 -31.5 190 -31.5 q100 0 190 31.5 q90 31.5 158.5 94 q68.5 62.5 109 157 q40.5 94.5 40.5 220.5 q0 106 -29 200 q-29 94 -80.5 167.5 q-51.5 73.5 -121 122.5 q-69.5 49 -150.5 64 l0 224 l520 0 q30 0 48 -18 q18 -18 18 -45 l0 -100 l-286 0 q-38 0 -77.5 3.5 q-39.5 3.5 -77.5 9.5 q92 -30 170.5 -89.5 q78.5 -59.5 136 -141 q57.5 -81.5 90 -183 q32.5 -101.5 32.5 -216.5 q0 -150 -54.5 -273.5 q-54.5 -123.5 -148 -211.5 q-93.5 -88 -219.5 -136 q-126 -48 -269 -48 Z" /><glyph glyph-name="" unicode="&#x1b2;" d="M842 1413 q47 17 88.5 26.5 q41.5 9.5 92.5 9.5 q87 0 150.5 -28 q63.5 -28 104 -82.5 q40.5 -54.5 60 -134 q19.5 -79.5 19.5 -182.5 q0 -148 -32 -282.5 q-32 -134.5 -89 -249.5 q-57 -115 -134 -209 q-77 -94 -167.5 -160 q-90.5 -66 -190 -102 q-99.5 -36 -200.5 -36 q-86 0 -155 27.5 q-69 27.5 -117.5 85 q-48.5 57.5 -75 146 q-26.5 88.5 -26.5 211.5 l0 980 l194 0 l0 -980 q0 -82 14 -140 q14 -58 40.5 -94.5 q26.5 -36.5 65.5 -53.5 q39 -17 89 -17 q68 0 138 28.5 q70 28.5 135.5 82.5 q65.5 54 123 132 q57.5 78 100.5 176 q43 98 68 215 q25 117 25 250 q0 55 -6 102.5 q-6 47.5 -22.5 82.5 q-16.5 35 -46 55 q-29.5 20 -76.5 20 q-20 0 -42 -3 q-22 -3 -41 -9 q-10 -2 -19.5 -2.5 q-9.5 -0.5 -18 2.5 q-8.5 3 -15 11 q-6.5 8 -9.5 22 l-25 100 l0 0 Z" /><glyph glyph-name="" unicode="&#x1b3;" d="M720 571 l0 -571 l-194 0 l0 571 l-525 862 l170 0 q26 0 41 -12.5 q15 -12.5 26 -32.5 l328 -557 q17 -35 32 -65.5 q15 -30.5 26 -60.5 q11 31 25 61.5 q14 30.5 34 64.5 l247 409 q63 109 137 158.5 q74 49.5 175 49.5 q26 0 48.5 -2.5 q22.5 -2.5 43 -7 q20.5 -4.5 41.5 -11 q21 -6.5 44 -15.5 l-25 -94 q-8 -29 -25 -33.5 q-17 -4.5 -37 0.5 q-16 5 -38 10 q-22 5 -45 5 q-50 0 -86.5 -28 q-36.5 -28 -68.5 -79 l-374 -622 Z" /><glyph glyph-name="" unicode="&#x1b5;" d="M1143 1433 l0 -72 q0 -34 -21 -64 l-348 -488 l333 0 l0 -147 l-437 0 l-359 -504 l820 0 l0 -158 l-1074 0 l0 76 q0 16 5.5 30 q5.5 14 13.5 27 l376 529 l-329 0 l0 147 l434 0 l331 466 l-793 0 l0 158 l1048 0 Z" /><glyph glyph-name="" unicode="&#x1b7;" d="M1043 1433 l0 -72 q0 -17 -5.5 -35.5 q-5.5 -18.5 -25.5 -38.5 l-417 -405 q131 -3 223.5 -35.5 q92.5 -32.5 151.5 -86 q59 -53.5 86 -125 q27 -71.5 27 -153.5 q0 -113 -44.5 -205 q-44.5 -92 -120 -157 q-75.5 -65 -176.5 -100 q-101 -35 -214 -35 q-74 0 -143 15 q-69 15 -130 43.5 q-61 28.5 -112.5 68.5 q-51.5 40 -90.5 91 l76 85 q10 11 18.5 13 q8.5 2 14.5 2 q11 0 20 -4 q9 -4 26 -18 q16 -18 43.5 -41 q27.5 -23 67 -43 q39.5 -20 91.5 -33.5 q52 -13.5 117 -13.5 q86 0 153 26 q67 26 112.5 70 q45.5 44 69.5 103 q24 59 24 124 q0 57 -20 106 q-20 49 -64 85 q-44 36 -115 56.5 q-71 20.5 -174 20.5 l-162 0 l0 82 q0 16 6 32.5 q6 16.5 22 32.5 l394 387 l-679 0 l0 158 l950 0 Z" /><glyph glyph-name="" unicode="&#x1b8;" d="M1082 1433 l0 -158 l-679 0 l394 -387 q16 -16 22 -32.5 q6 -16.5 6 -32.5 l0 -82 l-162 0 q-103 0 -174 -20.5 q-71 -20.5 -115.5 -56.5 q-44.5 -36 -64 -85 q-19.5 -49 -19.5 -106 q0 -65 23.5 -124 q23.5 -59 69 -103 q45.5 -44 112.5 -70 q67 -26 153 -26 q64 0 116.5 13.5 q52.5 13.5 92 33.5 q39.5 20 67.5 43 q28 23 44 41 q17 14 26 18 q9 4 20 4 q6 0 14.5 -2 q8.5 -2 18.5 -13 l75 -85 q-39 -51 -90.5 -91 q-51.5 -40 -112 -68.5 q-60.5 -28.5 -129.5 -43.5 q-69 -15 -143 -15 q-113 0 -214 35 q-101 35 -177 100 q-76 65 -120 157 q-44 92 -44 205 q0 82 27 153.5 q27 71.5 85.5 125 q58.5 53.5 150.5 86 q92 32.5 223 35.5 l-416 405 q-20 20 -25 38.5 q-5 18.5 -5 35.5 l0 72 l950 0 Z" /><glyph glyph-name="" unicode="&#x1bc;" d="M1023 1355 q0 -38 -24 -62.5 q-24 -24.5 -81 -24.5 l-426 0 l-111 -368 q45 8 86.5 12 q41.5 4 79.5 4 q130 0 226.5 -33 q96.5 -33 161 -92 q64.5 -59 96.5 -139.5 q32 -80.5 32 -176.5 q0 -111 -42 -201.5 q-42 -90.5 -113 -155 q-71 -64.5 -164.5 -99.5 q-93.5 -35 -196.5 -35 q-169 0 -289 58 q-120 58 -199 159 l67 78 q10 11 17.5 14.5 q7.5 3.5 15.5 3.5 q17 0 34 -15 q17 -14 44 -37 q27 -23 67.5 -44.5 q40.5 -21.5 95.5 -37 q55 -15.5 127 -15.5 q90 0 155.5 27.5 q65.5 27.5 108 73 q42.5 45.5 62.5 104.5 q20 59 20 122 q0 67 -23.5 119 q-23.5 52 -68 88 q-44.5 36 -109 55 q-64.5 19 -145.5 19 q-61 0 -125.5 -9.5 q-64.5 -9.5 -126.5 -28.5 l-112 33 l159 532 q-38 -3 -76 -3 l-66 0 q-39 0 -55.5 19.5 q-16.5 19.5 -16.5 39.5 l0 94 l915 0 l0 -78 Z" /><glyph glyph-name="" unicode="&#x1e4;" d="M1172 471 l0 129 l-227 0 q-20 0 -31 10.5 q-11 10.5 -11 27.5 l0 99 l445 0 l0 -266 l167 0 l0 -135 l-167 0 l0 -197 q-54 -39 -112.5 -68 q-58.5 -29 -125 -48.5 q-66.5 -19.5 -142.5 -29 q-76 -9.5 -165 -9.5 q-156 0 -286 53.5 q-130 53.5 -224 150 q-94 96.5 -146.5 231.5 q-52.5 135 -52.5 297 q0 164 51.5 299 q51.5 135 147 231.5 q95.5 96.5 231.5 149.5 q136 53 304 53 q85 0 158 -12.5 q73 -12.5 135 -36 q62 -23.5 115 -57 q53 -33.5 99 -75.5 l-55 -88 q-13 -20 -33.5 -25.5 q-20.5 -5.5 -45.5 9.5 q-25 14 -56 34 q-31 20 -75 38.5 q-44 18.5 -104.5 31.5 q-60.5 13 -144.5 13 q-121 0 -219 -39.5 q-98 -39.5 -167 -113 q-69 -73.5 -106 -178 q-37 -104.5 -37 -234.5 q0 -136 38.5 -242.5 q38.5 -106.5 108.5 -180.5 q70 -74 166 -113 q96 -39 212 -39 q58 0 106.5 5.5 q48.5 5.5 91.5 16.5 q43 11 81 26.5 q38 15.5 76 35.5 l0 111 l-227 0 q-19 0 -30.5 10.5 q-11.5 10.5 -11.5 27.5 l0 97 l269 0 Z" /><glyph glyph-name="" unicode="&#x1f6;" d="M1343 409 q0 -143 51 -211 q51 -68 143 -68 q67 0 127 33 q60 33 105.5 101 q45.5 68 72 171 q26.5 103 26.5 243 q0 100 -31 151 q-31 51 -106 51 q-25 0 -44.5 -5.5 q-19.5 -5.5 -30.5 -5.5 q-30 0 -36 34 l-15 100 q41 14 84 19.5 q43 5.5 88 5.5 q81 0 134 -28 q53 -28 84 -75 q31 -47 43.5 -109 q12.5 -62 12.5 -130 q0 -175 -44 -306.5 q-44 -131.5 -116.5 -219 q-72.5 -87.5 -165.5 -131.5 q-93 -44 -191 -44 q-80 0 -149.5 23 q-69.5 23 -122 73.5 q-52.5 50.5 -82.5 131 q-30 80.5 -30 196.5 l0 243 l-773 0 l0 -652 l-194 0 l0 1433 l194 0 l0 -639 l773 0 l0 639 l194 0 l-1 -1024 Z" /><glyph glyph-name="" unicode="&#x1f7;" d="M1317 966 q0 -164 -66 -307.5 q-66 -143.5 -188.5 -268 q-122.5 -124.5 -296.5 -230.5 q-174 -106 -390 -195 l0 -309 l-193 0 l0 1785 l139 0 q17 0 32 -15.5 q15 -15.5 16 -39.5 l3 -159 q58 59 114.5 101 q56.5 42 114 68.5 q57.5 26.5 118 38.5 q60.5 12 126.5 12 q111 0 198.5 -40 q87.5 -40 148 -107 q60.5 -67 92.5 -154 q32 -87 32 -180 ZM376 146 q181 77 320 163.5 q139 86.5 233.5 185.5 q94.5 99 143 213 q48.5 114 48.5 246 q0 75 -22.5 135.5 q-22.5 60.5 -63.5 103 q-41 42.5 -99 66 q-58 23.5 -129 23.5 q-65 0 -124 -17.5 q-59 -17.5 -112.5 -49 q-53.5 -31.5 -102.5 -76 q-49 -44.5 -92 -98.5 l0 -895 Z" /><glyph glyph-name="" unicode="&#x220;" d="M1097 -344 l0 1311 q0 73 -19.5 131 q-19.5 58 -57.5 99 q-38 41 -94.5 63 q-56.5 22 -131.5 22 q-67 0 -124 -17 q-57 -17 -108 -48 q-51 -31 -96.5 -76 q-45.5 -45 -88.5 -100 l0 -1041 l-194 0 l0 1441 l139 0 q17 0 32 -15.5 q15 -15.5 16 -39.5 l3 -167 q60 66 115.5 109.5 q55.5 43.5 111.5 70 q56 26.5 114.5 37.5 q58.5 11 126.5 11 q100 0 183 -36 q83 -36 142.5 -99 q59.5 -63 92 -149.5 q32.5 -86.5 32.5 -187.5 l0 -1319 l-194 0 Z" /><glyph glyph-name="" unicode="&#x222;" d="M1137 1219 q0 -76 -26 -134.5 q-26 -58.5 -69.5 -103.5 q-43.5 -45 -102 -80 q-58.5 -35 -122.5 -65 q70 -32 134.5 -69.5 q64.5 -37.5 114 -88.5 q49.5 -51 79 -118 q29.5 -67 29.5 -157 q0 -96 -36 -173.5 q-36 -77.5 -105 -132 q-69 -54.5 -168.5 -84 q-99.5 -29.5 -226.5 -29.5 q-127 0 -226.5 29.5 q-99.5 29.5 -168 84 q-68.5 54.5 -104.5 132 q-36 77.5 -36 173.5 q0 87 30 151.5 q30 64.5 80 113.5 q50 49 116 85.5 q66 36.5 137 67.5 q-66 30 -125 66 q-59 36 -104 83.5 q-45 47.5 -71.5 108 q-26.5 60.5 -26.5 140.5 q0 57 16.5 108 q16.5 51 57.5 106 l137 0 q23 0 31.5 -17.5 q8.5 -17.5 -2.5 -40.5 q-20 -30 -33 -69 q-13 -39 -13 -87 q0 -63 26.5 -110 q26.5 -47 71.5 -83.5 q45 -36.5 104 -66 q59 -29.5 125 -57.5 q60 27 114 56.5 q54 29.5 94 67.5 q40 38 63.5 85.5 q23.5 47.5 23.5 110.5 q0 44 -13 83 q-13 39 -34 68 q-11 25 -2 42.5 q9 17.5 43 17.5 l119 0 q37 -48 53 -104 q16 -56 16 -110 ZM984 422 q0 66 -29.5 115 q-29.5 49 -79.5 87.5 q-50 38.5 -115 69.5 q-65 31 -135 60 q-66 -28 -126.5 -59 q-60.5 -31 -106 -70 q-45.5 -39 -72.5 -88.5 q-27 -49.5 -27 -114.5 q0 -73 25 -126.5 q25 -53.5 71 -88 q46 -34.5 109 -51.5 q63 -17 140 -17 q76 0 140 17 q64 17 109.5 51.5 q45.5 34.5 71 88 q25.5 53.5 25.5 126.5 Z" /><glyph glyph-name="" unicode="&#x224;" d="M1139 1433 l0 -72 q0 -33 -20 -64 l-812 -1139 l850 0 l0 -171 q0 -77 -18.5 -141.5 q-18.5 -64.5 -57 -111.5 q-38.5 -47 -98 -73 q-59.5 -26 -142.5 -26 q-47 0 -87.5 9 q-40.5 9 -84.5 27 l20 78 q5 22 17 28.5 q12 6.5 23 6.5 q13 0 36.5 -7 q23.5 -7 58.5 -7 q42 0 72.5 14 q30.5 14 50 39.5 q19.5 25.5 29 60.5 q9.5 35 9.5 77 l0 39 l-932 0 l0 76 q0 16 5.5 30 q5.5 14 13.5 27 l812 1142 l-793 0 l0 158 l1048 0 Z" /><glyph glyph-name="" unicode="&#x244;" d="M181 809 l0 624 l194 0 l0 -624 l754 0 l0 624 l194 0 l0 -624 l176 0 l0 -147 l-176 0 l0 -100 q0 -124 -39.5 -230 q-39.5 -106 -113.5 -183.5 q-74 -77.5 -180 -121.5 q-106 -44 -238 -44 q-132 0 -238 44 q-106 44 -180 121.5 q-74 77.5 -113.5 183.5 q-39.5 106 -39.5 230 l0 100 l-176 0 l0 147 l176 0 ZM752 154 q89 0 159 30 q70 30 118.5 84 q48.5 54 74 129 q25.5 75 25.5 165 l0 100 l-754 0 l0 -99 q0 -90 25.5 -165 q25.5 -75 74 -129 q48.5 -54 118.5 -84.5 q70 -30.5 159 -30.5 Z" /></font>
</defs>
</svg>
